Files
2023-06-15 19:15:39 -05:00

419 lines
3.9 KiB
Plaintext

//TJADB Project
TITLE:We Go! -Short Version-
TITLEJA:ウィーゴー! -Short Version-
SUBTITLE:--Hiroshi Kitadani/ONE PIECE
SUBTITLEJA:「ワンピース」より
BPM:176
WAVE:We Go! -Short Version-.ogg
OFFSET:-1.604
DEMOSTART:77.285
COURSE:Oni
LEVEL:6
SCOREINIT:630
SCOREDIFF:168
#START
#MEASURE 6/4
200000200000201110101000,
#MEASURE 4/4
1,
1,
500000000000000000000000000000000000000000000008,
,
10110121,
10110121,
500000000000000000000000000000000000000000000008,
,
1000200010200011,
1010200010200011,
11202003,
00030000,
1000200010200011,
1010200010200011,
11202004,
00040000,
1011101110111011,
500000000000000000000000000000000000000008000000,
#GOGOSTART
1000200110102011,
1000200110102011,
10211120,
1000201020020050,
000000000000000000000000000000000008000000000000,
1110222011102220,
13,
#GOGOEND
30200020,
0000200020022020,
11211020,
11211020,
11200020,
00200020,
11211020,
11211020,
1000200020022020,
11120120,
11220120,
11120120,
1210,
11120120,
11220120,
11120120,
1210,
1000101110111010,
2000202220222020,
1000101110111010,
2000202220222020,
10211120,
10211220,
10211120,
1000200020222000,
1000101110111010,
2000202220222020,
1011101110111011,
500000000000000000000000000000000000000008000000,
#GOGOSTART
1000200110102011,
1000200110102011,
10211120,
1000201110222000,
1000201010102011,
1000201110222000,
10211125,
000000000000000000000000000000000000000008000000,
1000200110102011,
1000200110102011,
10211120,
1000201020020050,
000000000000000000000000000000000008000000000000,
1212,
1212,
2020200220222000,
1212,
1212,
2020200220222000,
1110222011102220,
1110111011101110,
2220222022202220,
6,
000000000008000000000000300000000000300000000000,
3000101020101022,
2330,
#GOGOEND
#END
COURSE:Hard
LEVEL:5
BALLOON:10
SCOREINIT:780
SCOREDIFF:235
#START
#MEASURE 6/4
200000200000202220202000,
#MEASURE 4/4
1,
1,
5,
8,
10110120,
10110120,
5,
8,
10201200,
11201200,
10202003,
00030000,
10201200,
11201200,
10101004,
00040000,
6008,
3,
#GOGOSTART
1000101110002000,
1000101110002000,
10201120,
10202005,
0008,
1212,
13,
#GOGOEND
3,
,
11201000,
11201000,
1202,
00200020,
11201000,
11201000,
1000200010111000,
10110120,
10110220,
10110120,
1210,
10110120,
10220220,
5,
80000110,
1000100010111000,
2000200020222000,
1000100010111000,
2000200020222000,
10201120,
10201120,
10210120,
1,
1000100010111000,
2000200020222000,
900009,
8,
#GOGOSTART
1000101110002000,
1000101110002000,
10201120,
10101120,
10201120,
10101120,
10201120,
3,
1000101110002000,
1000101110002000,
10201120,
10202005,
0008,
11,
11,
2000200020222000,
11,
11,
2000200020222000,
1212,
1202,
3202,
6,
0008000030003000,
3,
0330,
#GOGOEND
#END
COURSE:Normal
LEVEL:2
BALLOON:8
#START
#SCROLL 0.85
#MEASURE 6/4
,
#MEASURE 4/4
1,
1,
5,
8,
1,
1,
5,
8,
11,
1110,
11,
1110,
22,
2220,
22,
2220,
6008,
3,
#GOGOSTART
1110,
1110,
1011,
00101005,
0008,
1111,
13,
#GOGOEND
3,
,
12,
12,
3,
,
12,
12,
1011,
12,
12,
11,
1110,
12,
12,
5,
8,
1101,
1101,
1101,
1101,
11,
22,
1110,
1,
1110,
2220,
900009,
8,
#GOGOSTART
1110,
1110,
1011,
11,
1,
1111,
1,
3,
1110,
1110,
1011,
00101005,
0008,
11,
11,
,
11,
11,
,
1111,
1,
3,
6,
0008000000000000,
,
0330,
#GOGOEND
,
,
,
#END
COURSE:Easy
LEVEL:3
BALLOON:5
#START
#SCROLL 0.85
#MEASURE 6/4
,
#MEASURE 4/4
1,
1,
5,
8,
1,
1,
5,
8,
11,
1,
11,
1,
22,
2,
22,
2,
6008,
3,
#GOGOSTART
1100,
1100,
1011,
00101005,
0008,
11,
13,
#GOGOEND
3,
,
1,
11,
3,
,
1,
11,
1,
3,
1,
11,
1,
11,
22,
5,
8,
1100,
2200,
1100,
2200,
11,
22,
11,
1,
11,
22,
900009,
8,
#GOGOSTART
1100,
1100,
11,
1,
1,
11,
1,
3,
1100,
1100,
1011,
00101005,
0008,
11,
11,
,
11,
11,
,
11,
1,
3,
6,
0008000000000000,
,
0330,
#GOGOEND
,
,
,
#END