forked from ESE/ESE
401 lines
4.1 KiB
Plaintext
401 lines
4.1 KiB
Plaintext
//TJADB Project
|
|
TITLE:We can‼ HUGtto! Pretty Cure
|
|
TITLEJA:ウィーキャン! HUGっと!プリキュア
|
|
SUBTITLE:--Kanako Miyamoto/HUGtto! Pretty Cure
|
|
BPM:172
|
|
WAVE:We can!! HUGtto! Pretty Cure.ogg
|
|
OFFSET:-1.551
|
|
DEMOSTART:50.686
|
|
|
|
COURSE:Oni
|
|
LEVEL:2
|
|
SCOREINIT:910
|
|
SCOREDIFF:240
|
|
|
|
|
|
#START
|
|
|
|
|
|
1,
|
|
2,
|
|
1,
|
|
#BPMCHANGE 170.57
|
|
2,
|
|
#BPMCHANGE 172.45
|
|
#SCROLL 0.99
|
|
1,
|
|
#BPMCHANGE 170.58
|
|
#SCROLL 1
|
|
2,
|
|
#BPMCHANGE 173.76
|
|
#SCROLL 0.98
|
|
1,
|
|
#BPMCHANGE 172
|
|
00022002,
|
|
|
|
#GOGOSTART
|
|
5,
|
|
000000000000000000000000000000000000000000000008,
|
|
,
|
|
10212120,
|
|
33330444,
|
|
04440000,
|
|
500000000000000000000000000000000000000000000008,
|
|
0300,
|
|
|
|
#GOGOEND
|
|
10201021,
|
|
01201120,
|
|
10201021,
|
|
01021020,
|
|
10201021,
|
|
01201120,
|
|
10201021,
|
|
01202211,
|
|
10220020,
|
|
10022002,
|
|
10210021,
|
|
00201110,
|
|
20111021,
|
|
11200011,
|
|
10210210,
|
|
01,
|
|
5,
|
|
000000000000000000000008000000000000000000000000,
|
|
33330444,
|
|
0111,
|
|
|
|
#GOGOSTART
|
|
10201120,
|
|
10201125,
|
|
000000000000000000000000000000000008000000000000,
|
|
0222,
|
|
10201120,
|
|
10211120,
|
|
500000000000000000000008000000000000200000200000,
|
|
1022,
|
|
10201120,
|
|
10201122,
|
|
10210121,
|
|
01201020,
|
|
10210120,
|
|
10210125,
|
|
000000000000000000000000000000000008000000200000,
|
|
|
|
#GOGOEND
|
|
02221010,
|
|
|
|
#GOGOSTART
|
|
20102121,
|
|
20202121,
|
|
20202121,
|
|
20202121,
|
|
20212021,
|
|
20212021,
|
|
000000500000000000000000000000000000000008000000,
|
|
|
|
#GOGOEND
|
|
00022002,
|
|
|
|
#BPMCHANGE 161
|
|
#SCROLL 1.06
|
|
500000000000000000000000000000000000000008000000,
|
|
|
|
#BPMCHANGE 154
|
|
#SCROLL 1.11
|
|
23,
|
|
|
|
|
|
#END
|
|
|
|
|
|
COURSE:Hard
|
|
LEVEL:2
|
|
BALLOON:17
|
|
SCOREINIT:1580
|
|
SCOREDIFF:865
|
|
|
|
#START
|
|
#BARLINEOFF
|
|
#MEASURE 2/4
|
|
,
|
|
|
|
#BARLINEON
|
|
#MEASURE 4/4
|
|
1,
|
|
2,
|
|
1,
|
|
2,
|
|
1,
|
|
2,
|
|
1,
|
|
,
|
|
|
|
#GOGOSTART
|
|
9,
|
|
0009,
|
|
8,
|
|
,
|
|
6,
|
|
000000000000000008000000000000000000000000000000,
|
|
3,
|
|
0300,
|
|
|
|
#GOGOEND
|
|
10101001,
|
|
,
|
|
10101001,
|
|
02,
|
|
10101001,
|
|
,
|
|
10101001,
|
|
02,
|
|
12,
|
|
12,
|
|
12,
|
|
1,
|
|
1110,
|
|
1110,
|
|
500000000000000000000000000000000000000000000008,
|
|
01,
|
|
5,
|
|
000000000000000000000008000000000000000000000000,
|
|
3,
|
|
0111,
|
|
|
|
#GOGOSTART
|
|
1021,
|
|
10002005,
|
|
000000000000000000000000000000000008000000000000,
|
|
0111,
|
|
1021,
|
|
1122,
|
|
1021,
|
|
1011,
|
|
2211,
|
|
2201,
|
|
1011,
|
|
1011,
|
|
1021,
|
|
10000005,
|
|
000000000000000000000000000000000008000000000000,
|
|
|
|
#GOGOEND
|
|
0011,
|
|
|
|
#GOGOSTART
|
|
2211,
|
|
2211,
|
|
2211,
|
|
2211,
|
|
2211,
|
|
2211,
|
|
500000000000000000000000000000000000000008000000,
|
|
|
|
#BPMCHANGE 175
|
|
#GOGOEND
|
|
,
|
|
|
|
#BPMCHANGE 163
|
|
500000000000000000000000000000000000000008000000,
|
|
|
|
#BPMCHANGE 160
|
|
03,
|
|
,
|
|
,
|
|
,
|
|
#END
|
|
|
|
COURSE:Normal
|
|
LEVEL:2
|
|
BALLOON:13
|
|
SCOREINIT:1770
|
|
SCOREDIFF:1490
|
|
|
|
#START
|
|
#BARLINEOFF
|
|
#MEASURE 2/4
|
|
,
|
|
|
|
#BARLINEON
|
|
#MEASURE 4/4
|
|
1,
|
|
,
|
|
1,
|
|
,
|
|
1,
|
|
,
|
|
1,
|
|
,
|
|
|
|
#GOGOSTART
|
|
9,
|
|
0009,
|
|
8,
|
|
,
|
|
6,
|
|
000000000000000008000000000000000000000000000000,
|
|
3,
|
|
0300,
|
|
|
|
#GOGOEND
|
|
11,
|
|
,
|
|
11,
|
|
02,
|
|
11,
|
|
,
|
|
11,
|
|
02,
|
|
|
|
1,
|
|
11,
|
|
1,
|
|
2,
|
|
11,
|
|
1,
|
|
500000000000000000000000000000000000000000000008,
|
|
01,
|
|
5,
|
|
000000000000000000000008000000000000000000000000,
|
|
3,
|
|
0111,
|
|
|
|
#GOGOSTART
|
|
1001,
|
|
10001005,
|
|
000000000000000000000000000000000008000000000000,
|
|
0111,
|
|
1001,
|
|
1110,
|
|
2,
|
|
2011,
|
|
11,
|
|
2,
|
|
11,
|
|
2011,
|
|
11,
|
|
20000005,
|
|
000000000000000000000000000000000008000000000000,
|
|
|
|
#GOGOEND
|
|
0011,
|
|
|
|
#GOGOSTART
|
|
1110,
|
|
2,
|
|
1110,
|
|
2011,
|
|
11,
|
|
2,
|
|
500000000000000000000000000000000000000008000000,
|
|
|
|
#BPMCHANGE 175
|
|
#GOGOEND
|
|
,
|
|
|
|
#BPMCHANGE 163
|
|
500000000000000000000000000000000000000008000000,
|
|
|
|
#BPMCHANGE 160
|
|
03,
|
|
,
|
|
,
|
|
,
|
|
#END
|
|
|
|
COURSE:Easy
|
|
LEVEL:1
|
|
SCOREINIT:2320
|
|
SCOREDIFF:4480
|
|
|
|
#START
|
|
#BARLINEOFF
|
|
#MEASURE 2/4
|
|
,
|
|
|
|
#BARLINEON
|
|
#MEASURE 4/4
|
|
1,
|
|
,
|
|
1,
|
|
,
|
|
1,
|
|
,
|
|
1,
|
|
,
|
|
|
|
#GOGOSTART
|
|
5,
|
|
000000000000000000000000000000000000000000000008,
|
|
,
|
|
,
|
|
6,
|
|
000000000000000008000000000000000000000000000000,
|
|
3,
|
|
0300,
|
|
|
|
#GOGOEND
|
|
1,
|
|
,
|
|
1,
|
|
,
|
|
1,
|
|
,
|
|
1,
|
|
,
|
|
1,
|
|
1,
|
|
1,
|
|
,
|
|
1,
|
|
1,
|
|
1,
|
|
,
|
|
5,
|
|
000000000000000000000008000000000000000000000000,
|
|
3,
|
|
,
|
|
|
|
#GOGOSTART
|
|
1,
|
|
10000005,
|
|
000000000000000000000000000000000008000000000000,
|
|
,
|
|
1,
|
|
1,
|
|
2,
|
|
,
|
|
1,
|
|
1,
|
|
1,
|
|
,
|
|
1,
|
|
10000005,
|
|
000000000000000000000000000000000008000000000000,
|
|
|
|
#GOGOEND
|
|
,
|
|
|
|
#GOGOSTART
|
|
11,
|
|
1,
|
|
2,
|
|
,
|
|
11,
|
|
1,
|
|
500000000000000000000000000000000000000008000000,
|
|
|
|
#BPMCHANGE 175
|
|
#GOGOEND
|
|
,
|
|
|
|
#BPMCHANGE 163
|
|
500000000000000000000000000000000000000008000000,
|
|
|
|
#BPMCHANGE 160
|
|
03,
|
|
,
|
|
,
|
|
,
|
|
#END |