forked from ESE/ESE
286 lines
2.7 KiB
Plaintext
286 lines
2.7 KiB
Plaintext
//TJADB Project
|
|
TITLE:Winding Road
|
|
TITLEJA:Winding Road
|
|
SUBTITLE:--MAN WITH A MISSION/Golden Kamuy
|
|
SUBTITLEJA:「ゴールデンカムイ」より
|
|
WAVE:Winding Road.ogg
|
|
BPM:132
|
|
OFFSET:-0.650
|
|
DEMOSTART:59.687
|
|
BGMOVIE:Winding Road.mp4
|
|
|
|
COURSE:Oni
|
|
LEVEL:7
|
|
BALLOON:15
|
|
SCOREINIT:920
|
|
SCOREDIFF:265
|
|
|
|
|
|
#START
|
|
|
|
|
|
#BARLINEOFF
|
|
0000000000001111,
|
|
#BARLINEON
|
|
21120121,
|
|
21021120,
|
|
21120121,
|
|
21021120,
|
|
21120120,
|
|
2020102000102011,
|
|
500000000000000000000000000000000008000000000000,
|
|
2010102010222210,
|
|
40120122,
|
|
11020122,
|
|
10120122,
|
|
11020122,
|
|
10120122,
|
|
11020122,
|
|
10221022,
|
|
1022102040404040,
|
|
11121122,
|
|
11120122,
|
|
11121122,
|
|
1010102000102022,
|
|
11121122,
|
|
11120122,
|
|
1110200011102000,
|
|
7008,
|
|
41,
|
|
21,
|
|
20001002,
|
|
20001012,
|
|
20001012,
|
|
20021020,
|
|
1012101010121010,
|
|
2021202000000000,
|
|
|
|
#GOGOSTART
|
|
1010202010112020,
|
|
1010202010102022,
|
|
1010202010112020,
|
|
1020102010102022,
|
|
1010202010112020,
|
|
1010202210102010,
|
|
40230144,
|
|
0020201020101111,
|
|
2011202010112020,
|
|
1010202210102022,
|
|
1011202010112020,
|
|
1020102210102022,
|
|
1011202010112020,
|
|
1010202210102022,
|
|
|
|
#GOGOEND
|
|
10120210,
|
|
|
|
|
|
#END
|
|
|
|
|
|
COURSE:Hard
|
|
LEVEL:5
|
|
BALLOON:12
|
|
SCOREINIT:900
|
|
SCOREDIFF:283
|
|
|
|
|
|
#START
|
|
|
|
|
|
#BARLINEOFF
|
|
,
|
|
#BARLINEON
|
|
11120120,
|
|
21021120,
|
|
11120120,
|
|
21021120,
|
|
10120120,
|
|
20120120,
|
|
500000000000000000000000000000000008000000000000,
|
|
2010102010111000,
|
|
10120120,
|
|
11020120,
|
|
10120120,
|
|
11020120,
|
|
10120120,
|
|
11020120,
|
|
10221020,
|
|
11012222,
|
|
10121120,
|
|
11020122,
|
|
10121120,
|
|
11020122,
|
|
10121120,
|
|
11020122,
|
|
10201120,
|
|
7008,
|
|
41,
|
|
21,
|
|
20001002,
|
|
20001012,
|
|
20001012,
|
|
20021020,
|
|
11111111,
|
|
22220000,
|
|
|
|
#GOGOSTART
|
|
11201120,
|
|
11221120,
|
|
11201120,
|
|
12121120,
|
|
11201120,
|
|
11221120,
|
|
30030044,
|
|
0000000010101110,
|
|
11201120,
|
|
11221122,
|
|
11201120,
|
|
12121122,
|
|
11201120,
|
|
1010202010102011,
|
|
|
|
#GOGOEND
|
|
10120210,
|
|
|
|
|
|
#END
|
|
|
|
|
|
COURSE:Normal
|
|
LEVEL:4
|
|
BALLOON:9,11
|
|
SCOREINIT:1020
|
|
SCOREDIFF:390
|
|
|
|
|
|
#START
|
|
|
|
|
|
#BARLINEOFF
|
|
,
|
|
#BARLINEON
|
|
10010020,
|
|
01002020,
|
|
10010020,
|
|
01002020,
|
|
10010020,
|
|
20010020,
|
|
500000000000000000000000000000000008000000000000,
|
|
30040000,
|
|
10110010,
|
|
10020000,
|
|
10110010,
|
|
10020000,
|
|
10110010,
|
|
10020000,
|
|
1212,
|
|
11020000,
|
|
10110020,
|
|
11020000,
|
|
10110020,
|
|
11020000,
|
|
10110020,
|
|
11020000,
|
|
1212,
|
|
7008,
|
|
41,
|
|
21,
|
|
21,
|
|
2011,
|
|
2011,
|
|
20021020,
|
|
9,
|
|
00080000,
|
|
|
|
#GOGOSTART
|
|
11101020,
|
|
11102020,
|
|
11101020,
|
|
11102220,
|
|
11101020,
|
|
10112020,
|
|
30030040,
|
|
00002220,
|
|
11101020,
|
|
11102020,
|
|
11101020,
|
|
11102220,
|
|
11101020,
|
|
10112020,
|
|
|
|
#GOGOEND
|
|
10120210,
|
|
|
|
|
|
#END
|
|
|
|
|
|
COURSE:Easy
|
|
LEVEL:3
|
|
BALLOON:7,10
|
|
SCOREINIT:920
|
|
SCOREDIFF:265
|
|
|
|
|
|
#START
|
|
|
|
|
|
#BARLINEOFF
|
|
,
|
|
#BARLINEON
|
|
10010010,
|
|
01001000,
|
|
10010010,
|
|
01001000,
|
|
10010000,
|
|
20020000,
|
|
500000000000000000000000000000000008000000000000,
|
|
30040000,
|
|
10010000,
|
|
1,
|
|
10010000,
|
|
1,
|
|
10010000,
|
|
1,
|
|
1110,
|
|
1,
|
|
10010000,
|
|
10020000,
|
|
10010000,
|
|
10020000,
|
|
10010000,
|
|
10020000,
|
|
1110,
|
|
7008,
|
|
4,
|
|
2,
|
|
2,
|
|
2,
|
|
21,
|
|
2012,
|
|
9,
|
|
00080000,
|
|
|
|
#GOGOSTART
|
|
1110,
|
|
1120,
|
|
1110,
|
|
1120,
|
|
1110,
|
|
1120,
|
|
30030040,
|
|
,
|
|
1210,
|
|
1120,
|
|
1210,
|
|
1120,
|
|
1210,
|
|
1120,
|
|
#GOGOEND
|
|
10020010,
|
|
|
|
|
|
#END
|
|
|