forked from ESE/ESE
261 lines
9.3 KiB
Plaintext
261 lines
9.3 KiB
Plaintext
//TJADB Project
|
|
TITLE:Yatterman no Uta
|
|
TITLEJA:ヤッターマンの歌
|
|
SUBTITLE:--Mizuumi Boys & Girls Chorus/Yatterman
|
|
SUBTITLEJA:ヤッターマン
|
|
BPM:139
|
|
WAVE:Yatterman no Uta.ogg
|
|
OFFSET:-2.211
|
|
DEMOSTART:50.529
|
|
|
|
COURSE:Oni
|
|
LEVEL:7
|
|
SCOREINIT:950
|
|
SCOREDIFF:210
|
|
|
|
|
|
#START
|
|
|
|
|
|
100100000100200000100000000000000000100000100000,
|
|
100100000100200000100000000000000000200000200000,
|
|
100100000100200000100000000000000000100000100000,
|
|
100100000100200000500000000000000008000000000000,
|
|
|
|
#GOGOSTART
|
|
100100100100200000000000100100100100200000000000,
|
|
100000100000000000300000000000000000000000000000,
|
|
100100100100200000000000100100100100200000000000,
|
|
200000200000000000400000000000000000000000000000,
|
|
|
|
#GOGOEND
|
|
100000000200100000200000100000000000300000000000,
|
|
100000000000200000100000100000200200200000200000,
|
|
100100100000200000100000200000000000300000000000,
|
|
100000000200100000200000100000200100200000200000,
|
|
100100100200100200100100200000000000300000000000,
|
|
100000000200100000200000100000200200200000200000,
|
|
100100100200100000100000200000000000300000000000,
|
|
100000000000100000000000300000000000000000000000,
|
|
100000100000200100100000100100000100200000100100,
|
|
100000100000200100100000100100000100200000200000,
|
|
100000100000200100100000100100000100200000100100,
|
|
100000100000200100100000100100000100200000200000,
|
|
100100000100200000100000100000100100200000000000,
|
|
100100000100200000100000100000200200200000000000,
|
|
300000000000400000000000300000000000400000000000,
|
|
600000000000000000000000000008000000000000000000,
|
|
|
|
#GOGOSTART
|
|
100000100000100100200200100000200000100000300000,
|
|
300000100100200000100100200000100000200000300000,
|
|
300000100100200000100200000000000000200000000000,
|
|
100000100000100000100000200000200000200000200000,
|
|
|
|
#GOGOEND
|
|
100000000000200000200000100000000000200000000000,
|
|
100000000000200000200000100000200200200000000000,
|
|
100000000000200000200000100000000000200000000000,
|
|
100100100100200200200200100100100100200200200200,
|
|
100000100000400000000000100000100000400000000000,
|
|
300000300000400000000000300000300000400000000000,
|
|
100000200000100000200000100000200000100000200000,
|
|
500000000000000000000000000008000000100100100000,
|
|
100000000000200000200000100000000000200000200000,
|
|
100000100100100000100100100000100100100000100100,
|
|
100000000000200000200000100000000000200000200000,
|
|
100200100100100200100100100200100100100200100100,
|
|
100100000200100100000200100100000200100100000200,
|
|
100000100000000000100000000000100000000000100000,
|
|
100100000200100000000000000000000000000000000000,
|
|
|
|
|
|
#END
|
|
|
|
|
|
COURSE:Hard
|
|
LEVEL:6
|
|
BALLOON:10,10
|
|
SCOREINIT:1080
|
|
SCOREDIFF:240
|
|
|
|
|
|
#START
|
|
|
|
|
|
100100000100100000100000000000000000100000100000,
|
|
100100000100100000100000000000000000200000200000,
|
|
100100000100100000100000000000000000100000100000,
|
|
100100000100100000100000000000000000000000000000,
|
|
#GOGOSTART
|
|
700000000000000000000000000000000800000000000000,
|
|
100000100000000000300000000000000000000000000000,
|
|
700000000000000000000000000000000800000000000000,
|
|
200000200000000000400000000000000000000000000000,
|
|
#GOGOEND
|
|
100000000100100000100000100000000000300000000000,
|
|
100000000000200000100000100000000000000000000000,
|
|
100000100000200000100000200000000000300000000000,
|
|
100000000100100000100000100000000000000000000000,
|
|
100100000100100000000100100000000000300000000000,
|
|
100000000100100000100000100000000000000000000000,
|
|
100100000100100000100000200000000000300000000000,
|
|
100000000000100000000000300000000000000000000000,
|
|
100000100000200000100000100100100000200000200000,
|
|
100000100000200000100000100100100000200000000000,
|
|
100000100000200000100000100100100000200000000000,
|
|
100000100000200000100000100100100000200000000000,
|
|
100000100000200000200000100100100000200000200000,
|
|
100000100000200000200000100100100000200000000000,
|
|
300000000000400000000000300000000000400000000000,
|
|
600000000000000000000000000000800000000000000000,
|
|
#GOGOSTART
|
|
100000100000100100100100100000100000100000000000,
|
|
100000100100100000100100200000000000200000000000,
|
|
100000100100100000100000000000000000200000000000,
|
|
100000100000100000100000200000200000200000200000,
|
|
#GOGOEND
|
|
100000000000200000200000100000000000200000000000,
|
|
100000000000200000200000100000200000200000000000,
|
|
100000000000200000200000100000000000200000000000,
|
|
500000000000000000000000000800000000000000000000,
|
|
100000100000200000000000100000100000200000000000,
|
|
100000100000400000000000100000100000400000000000,
|
|
100000200000100000200000100000200000100000200000,
|
|
500000000000000000000000000800000000000000000000,
|
|
100000000000200000000000100000000000200000000000,
|
|
100000100000100000100000100000100000100000100000,
|
|
100000000000200000000000100000000000200000000000,
|
|
100000100100100000100100100000100100100000000000,
|
|
100000000100100000000100100000000100100000000100,
|
|
100000100000000000100000000000100000000000100000,
|
|
100100000100100000000000000000000000000000000000,
|
|
|
|
|
|
#END
|
|
|
|
|
|
COURSE:Normal
|
|
LEVEL:4
|
|
BALLOON:6,6
|
|
SCOREINIT:430
|
|
SCOREDIFF:440
|
|
|
|
|
|
#START
|
|
|
|
|
|
100000000000100000100000000000000000000000000000,
|
|
100000000000100000100000000000000000200000000000,
|
|
100000000000100000100000000000000000100000000000,
|
|
100000000000100000100000000000000000000000000000,
|
|
#GOGOSTART
|
|
700000000000000000000000000000800000000000000000,
|
|
100000100000000000300000000000000000000000000000,
|
|
700000000000000000000000000000800000000000000000,
|
|
200000200000000000400000000000000000000000000000,
|
|
#GOGOEND
|
|
100000000000100000100000100000000000000000000000,
|
|
100000000000100000100000200000000000000000000000,
|
|
100000000000100000100000100000000000000000000000,
|
|
100000000000100000200000100000000000000000000000,
|
|
100000000000100000000000100000000000200000000000,
|
|
100000000000100000100000200000000000000000000000,
|
|
100000000000100000100000100000000000200000000000,
|
|
100000000000100000000000300000000000000000000000,
|
|
100000000000000000100000100000000000200000000000,
|
|
100000000000200000000000100000000000000000000000,
|
|
100000000000000000100000100000000000200000000000,
|
|
500000000000000000000000800000000000000000000000,
|
|
100000000000200000200000100000000000100000000000,
|
|
100000000000200000000000100000000000000000000000,
|
|
100000000000200000200000100000000000100000000000,
|
|
500000000000000000000000800000000000000000000000,
|
|
#GOGOSTART
|
|
100000000000100000000000100000100000100000000000,
|
|
100000000000100000000000200000000000200000000000,
|
|
100000000000100000000000000000000000200000000000,
|
|
500000000000000000000000000000800000000000000000,
|
|
#GOGOEND
|
|
100000000000200000200000000000000000200000000000,
|
|
100000000000200000000000000000000000200000000000,
|
|
100000000000200000200000000000000000200000000000,
|
|
500000000000000000000000000000800000000000000000,
|
|
100000100000000000000000100000100000000000000000,
|
|
300000300000000000000000300000300000000000000000,
|
|
300000000000300000000000300000000000300000000000,
|
|
600000000000000000000000800000000000000000000000,
|
|
100000000000200000000000000000000000200000000000,
|
|
100000100000100000000000100000100000100000000000,
|
|
100000000000200000000000000000000000200000000000,
|
|
100000100000100000100000100000100000100000000000,
|
|
200000000000200000000000200000000000200000000000,
|
|
100000100000000000100000000000100000000000000000,
|
|
100000000000300000000000000000000000000000000000,
|
|
|
|
|
|
#END
|
|
|
|
|
|
COURSE:Easy
|
|
LEVEL:4
|
|
BALLOON:5,5
|
|
SCOREINIT:360
|
|
SCOREDIFF:440
|
|
|
|
|
|
#START
|
|
|
|
|
|
100000000000000000100000000000000000000000000000,
|
|
100000000000000000100000000000000000000000000000,
|
|
100000000000000000100000000000000000100000000000,
|
|
100000000000000000100000000000000000000000000000,
|
|
#GOGOSTART
|
|
700000000000000000000000000000800000000000000000,
|
|
100000000000000000300000000000000000000000000000,
|
|
700000000000000000000000000000800000000000000000,
|
|
200000000000000000400000000000000000000000000000,
|
|
#GOGOEND
|
|
100000000000100000000000100000000000000000000000,
|
|
100000000000100000000000200000000000000000000000,
|
|
100000000000100000000000100000000000000000000000,
|
|
100000000000200000000000100000000000000000000000,
|
|
100000000000100000000000100000000000200000000000,
|
|
100000000000100000000000100000000000000000000000,
|
|
100000000000100000000000100000000000200000000000,
|
|
100000000000100000000000200000000000000000000000,
|
|
100000000000000000000000100000000000000000000000,
|
|
100000000000200000000000100000000000200000000000,
|
|
100000000000000000000000100000000000100000000000,
|
|
500000000000000000000000800000000000000000000000,
|
|
100000000000000000000000100000000000000000000000,
|
|
100000000000200000000000100000000000200000000000,
|
|
100000000000000000000000100000000000100000000000,
|
|
500000000000000000000000800000000000000000000000,
|
|
#GOGOSTART
|
|
100000000000000000000000100000100000100000000000,
|
|
100000000000000000000000200000000000200000000000,
|
|
100000000000100000000000000000000000200000000000,
|
|
500000000000000000000000000000800000000000000000,
|
|
#GOGOEND
|
|
100000000000200000000000000000000000200000000000,
|
|
100000000000200000000000000000000000200000000000,
|
|
100000000000200000000000000000000000200000000000,
|
|
500000000000000000000000000000800000000000000000,
|
|
100000000000000000000000100000000000000000000000,
|
|
300000000000000000000000300000000000000000000000,
|
|
300000000000300000000000300000000000300000000000,
|
|
600000000000000000000000800000000000000000000000,
|
|
200000000000000000000000200000000000000000000000,
|
|
100000000000100000000000100000000000100000000000,
|
|
200000000000000000000000200000000000000000000000,
|
|
300000000000300000000000300000000000300000000000,
|
|
200000000000200000000000200000000000200000000000,
|
|
500000000000000000000000000000800000000000000000,
|
|
100000000000300000000000000000000000000000000000,
|
|
|
|
|
|
#END
|
|
|