Files
2023-01-17 00:45:18 -05:00

738 lines
20 KiB
Plaintext
Raw Permalink Blame History

This file contains ambiguous Unicode characters
This file contains Unicode characters that might be confused with other characters. If you think that this is intentional, you can safely ignore this warning. Use the Escape button to reveal them.
//TJADB Project
TITLE:You’ve Got a Friend in Me
TITLEJA:You've Got a Friend in Me
SUBTITLE:--Randy Newman/Toy Story
SUBTITLEJA:「トイ・ストーリー」より
BPM:117
WAVE:You’ve Got a Friend in Me.ogg
OFFSET:-2.322
DEMOSTART:12.606
COURSE:Oni
LEVEL:7
BALLOON:22,22,22,35,18,25
SCOREINIT:850
SCOREDIFF:220
#START
#SCROLL 0.9829059829
100000001000200010001000100000001000100000002000,
100000001000200000001000100000001000100000002000,
#BPMCHANGE 118.5
#SCROLL 0.97046413502
100000001000200000001000100000002020200000000000,
#BPMCHANGE 117
#SCROLL 0.9829059829
100000001000200000000000100000001000100000000000,
#BPMCHANGE 114
#SCROLL 1.00877192982
100000001000200000000000100000002000200000000000,
100000001000200000001000100000000000100000002000,
#BPMCHANGE 113
#SCROLL 1.01769911504
100000001000200000001000100000001000100010002000,
#BPMCHANGE 115.5
#SCROLL 0.9956709956709957
100000001000200010001000100000000000100000002000,
#BPMCHANGE 115.3
#SCROLL 0.997398091934085
100000001000200000000000100000002000100000000000,
#BPMCHANGE 114.7
#SCROLL 1.002615518744551
100000001000200000001000100000001000100000002000,
#BPMCHANGE 116.5
#SCROLL 0.9871244635193133
100000001000200010001000100000001000200000001000,
#BPMCHANGE 115
#SCROLL 1
100000001000200000001000100000001000100000002000,
#BPMCHANGE 115.5
#SCROLL 0.9956709956709957
100000001000100000001000100000002000200000000000,
#BPMCHANGE 116.5
#SCROLL 0.9871244635193133
300000000000300000000000400000000000300000000000,
#BPMCHANGE 116
#SCROLL 0.99137931034
300000001000200000001000100000001000100000007000,
#BPMCHANGE 115.8
#SCROLL 0.9930915371329879
000000000000000000000000000000000000000000800000,
#BPMCHANGE 115
#SCROLL 1
100000001000200000001000100000001000100000007000,
000000000000000000000000000000000000000000800000,
#BPMCHANGE 116
#SCROLL 0.99137931034
100000001000200010001000100000001000100000002000,
#BPMCHANGE 117.5
#SCROLL 0.9787234042553191
100000001000200000001000100000001000100000002000,
#BPMCHANGE 116
#SCROLL 0.99137931034
100000001000200000001000100000002020200000000000,
#BPMCHANGE 115
#SCROLL 1
100000001000200000001000100000000000100000002000,
100000001000200000001000100000001000100010002000,
#BPMCHANGE 115.3
#SCROLL 0.997398091934085
100000001000200000001000100000001000100000002000,
#BPMCHANGE 114.8
#SCROLL 1.0017421602787457
100000001000200000000000100000002000100000001000,
#BPMCHANGE 116.3
#SCROLL 0.9888220120378333
100000001000200000001000100000000000200000000000,
600000000000000000080000000000000000200000000000,
100000001000100000001000100000002000200000001000,
100000001000100000002000200000001000100000000000,
100000001000100000001000200000002000100000000000,
#BPMCHANGE 117.8
#SCROLL 0.9762308998302207
300000001000200000001000100000001000100000007000,
#BPMCHANGE 117.3
#SCROLL 0.9803921568627452
000000000000000000000000000000000000000000800000,
#BPMCHANGE 116.5
#SCROLL 0.9871244635193133
100000001000200000001000100000001000100000002000,
#BPMCHANGE 115
#SCROLL 1
100000001000200000002000200000000000100000002000,
#BPMCHANGE 115.8
#SCROLL 0.9930915371329879
100000000000100000001000200000001000100000000000,
#GOGOSTART
#BPMCHANGE 114.5
#SCROLL 1.0043668122270741
300000001000100010001000100000001000200000001000,
#BPMCHANGE 116.2
#SCROLL 0.9896729776247848
100000005000000000000000000000000000000008000000,
100000000000100010001000100000000000100000002000,
#BPMCHANGE 117
#SCROLL 0.9829059829
100000002000200000001000100000001000100020000000,
100000001000200000001000100000000000200000001000,
#BPMCHANGE 115
#SCROLL 1
700000000000000000000000000000000000000000000000,
#BPMCHANGE 117
#SCROLL 0.9829059829
000000000000000000000000800000000000000000001000,
#BPMCHANGE 116.8
#SCROLL 0.9845890410958904
100000001000200000001000100010001000200000000000,
#GOGOEND
#BPMCHANGE 114
#SCROLL 1.00877192982
100000001000200010001000100000000000100000002000,
#BPMCHANGE 116
#SCROLL 0.99137931034
100000000000100000001000200000001000100000002000,
#BPMCHANGE 117.2
#SCROLL 0.9812286689419795
100000001000200000001000100000000000100000002000,
#BPMCHANGE 116
#SCROLL 0.99137931034
100000001000200000001000100000001000100000002000,
100000001000200000000000200000001000100000000000,
#BPMCHANGE 98
#SCROLL 1.1734693877551021
70
#BPMCHANGE 90.5
#SCROLL 1.270718232044199
00
#BPMCHANGE 84
#SCROLL 1.369047619047619
0800,
#BPMCHANGE 116
#SCROLL 0.99137931034
100000001000200000001000100000001000100020000000,
#BPMCHANGE 115
#SCROLL 1
100000001000200000001000100000001000100010002000,
#BPMCHANGE 117
#SCROLL 0.9829059829
100000001000200000001000100000001000100020000000,
#BPMCHANGE 116.8
#SCROLL 0.9845890410958904
100000001000200000001000100000001000100000002000,
#BPMCHANGE 115.8
#SCROLL 0.9930915371329879
100000001000200000002000200000000000100000002000,
#BPMCHANGE 116.3
#SCROLL 0.9888220120378333
100000001000200010001000100000001000100000002000,
#BPMCHANGE 118
#SCROLL 0.97457627118
100000001000200000001000100000001000100000002000,
#BPMCHANGE 116
#SCROLL 0.99137931034
101201
#BPMCHANGE 101
#SCROLL 1.13861386139
102
#BPMCHANGE 92
#SCROLL 1.25
207,
#BPMCHANGE 116.8
#SCROLL 0.9845890410958904
000000000000000000000000000000000000000000000008,
#END
COURSE:Hard
LEVEL:4
BALLOON:18,18,18,28,11,20
SCOREINIT:950
SCOREDIFF:265
#START
#SCROLL 0.9829059829
100000000000100000000000200000000000200000000000,
100000000000100000000000200000000000200000000000,
#BPMCHANGE 118.5
#SCROLL 0.97046413502
100000000000100000000000200000002000200000000000,
#BPMCHANGE 117
#SCROLL 0.9829059829
100000000000200000000000100000000000200000000000,
#BPMCHANGE 114
#SCROLL 1.00877192982
100000000000200000000000100000000000200000000000,
100000001000100000000000200000000000100000001000,
#BPMCHANGE 113
#SCROLL 1.01769911504
100000000000100000000000200000000000000000000000,
#BPMCHANGE 115.5
#SCROLL 0.9956709956709957
100000001000100000000000200000000000100000001000,
#BPMCHANGE 115.3
#SCROLL 0.997398091934085
100000000000100000000000200000000000000000000000,
#BPMCHANGE 114.7
#SCROLL 1.002615518744551
100000000000100000002000200000000000100000000000,
#BPMCHANGE 116.5
#SCROLL 0.9871244635193133
100000000000100000002000200000000000100000000000,
#BPMCHANGE 115
#SCROLL 1
100000000000100000002000200000000000100000001000,
#BPMCHANGE 115.5
#SCROLL 0.9956709956709957
100000001000100000002000200000000000000000000000,
#BPMCHANGE 116.5
#SCROLL 0.9871244635193133
300000000000300000000000400000000000300000000000,
#BPMCHANGE 116
#SCROLL 0.99137931034
300000001000100000002000200000000000000000007000,
#BPMCHANGE 115.8
#SCROLL 0.9930915371329879
000000000000000000000000000000000000000000800000,
#BPMCHANGE 115
#SCROLL 1
100000001000100000000000200000000000000000007000,
000000000000000000000000000000000000000000800000,
#BPMCHANGE 116
#SCROLL 0.99137931034
100000001000100000000000200000000000200000000000,
#BPMCHANGE 117.5
#SCROLL 0.9787234042553191
100000001000100000000000200000000000200000000000,
#BPMCHANGE 116
#SCROLL 0.99137931034
100000000000100000000000100000000000200000000000,
#BPMCHANGE 115
#SCROLL 1
100000001000100000000000200000000000100000001000,
100000000000100000000000200000000000000000000000,
#BPMCHANGE 115.3
#SCROLL 0.997398091934085
100000001000100000000000200000000000100000001000,
#BPMCHANGE 114.8
#SCROLL 1.0017421602787457
100000000000100000000000200000000000000000000000,
#BPMCHANGE 116.3
#SCROLL 0.9888220120378333
100000000000100000002000200000000000100000000000,
600000000000000000080000000000000000000000000000,
100000001000100000000000200000000000100000000000,
100000001000100000002000200000001000100000000000,
100000001000100000000000200000000000000000000000,
#BPMCHANGE 117.8
#SCROLL 0.9762308998302207
300000001000100000002000200000000000000000007000,
#BPMCHANGE 117.3
#SCROLL 0.9803921568627452
000000000000000000000000000000000000000000800000,
#BPMCHANGE 116.5
#SCROLL 0.9871244635193133
100000000000100000000000200000000000000000000000,
#BPMCHANGE 115
#SCROLL 1
100000001000100000000000200000000000100000001000,
#BPMCHANGE 115.8
#SCROLL 0.9930915371329879
100000000000100000000000200000000000000000000000,
#GOGOSTART
#BPMCHANGE 114.5
#SCROLL 1.0043668122270741
300000000000100000001000100000000000200000000000,
#BPMCHANGE 116.2
#SCROLL 0.9896729776247848
500000000000000000000000000000000000000008000000,
100000000000100000001000100000000000200000000000,
#BPMCHANGE 117
#SCROLL 0.9829059829
100000002000200000001000100000000000200000000000,
100000000000100000001000100000000000200000000000,
#BPMCHANGE 115
#SCROLL 1
700000000000000000000000000000000000000000000000,
#BPMCHANGE 117
#SCROLL 0.9829059829
000000000000000000000000800000000000000000000000,
#BPMCHANGE 116.8
#SCROLL 0.9845890410958904
100000001000100000000000200000002000200000000000,
#GOGOEND
#BPMCHANGE 114
#SCROLL 1.00877192982
100000001000100000000000200000000000100000001000,
#BPMCHANGE 116
#SCROLL 0.99137931034
100000000000100000000000200000000000000000000000,
#BPMCHANGE 117.2
#SCROLL 0.9812286689419795
100000001000100000000000200000000000100000001000,
#BPMCHANGE 116
#SCROLL 0.99137931034
100000000000100000000000200000000000000000000000,
100000001000100000000000200000000000100000000000,
#BPMCHANGE 98
#SCROLL 1.1734693877551021
90
#BPMCHANGE 90.5
#SCROLL 1.270718232044199
00
#BPMCHANGE 84
#SCROLL 1.369047619047619
0800,
#BPMCHANGE 116
#SCROLL 0.99137931034
100000001000100000000000200000002000200000000000,
#BPMCHANGE 115
#SCROLL 1
100000000000100000000000200000000000000000000000,
#BPMCHANGE 117
#SCROLL 0.9829059829
100000001000100000000000200000002000200000000000,
#BPMCHANGE 116.8
#SCROLL 0.9845890410958904
100000000000100000000000200000000000000000000000,
#BPMCHANGE 115.8
#SCROLL 0.9930915371329879
300000001000100000000000400000000000300000000000,
#BPMCHANGE 116.3
#SCROLL 0.9888220120378333
300000001000100000000000200000000000200000000000,
#BPMCHANGE 118
#SCROLL 0.97457627118
100000001000100000000000200000000000200000000000,
#BPMCHANGE 116
#SCROLL 0.99137931034
100100
#BPMCHANGE 101
#SCROLL 1.13861386139
100
#BPMCHANGE 92
#SCROLL 1.25
207,
#BPMCHANGE 116.8
#SCROLL 0.9845890410958904
000000000000000000000000000000000000000000000008,
#END
COURSE:Normal
LEVEL:3
BALLOON:11,11,11,18,7,14
SCOREINIT:1100
SCOREDIFF:425
#START
#SCROLL 0.9829059829
100000000000100000000000100000000000000000000000,
100000000000000000000000200000000000000000000000,
#BPMCHANGE 118.5
#SCROLL 0.97046413502
100000000000100000000000100000000000000000000000,
#BPMCHANGE 117
#SCROLL 0.9829059829
100000000000000000000000100000000000000000000000,
#BPMCHANGE 114
#SCROLL 1.00877192982
100000000000000000000000200000000000000000000000,
100000000000100000000000200000000000100000000000,
#BPMCHANGE 113
#SCROLL 1.01769911504
100000000000000000000000200000000000000000000000,
#BPMCHANGE 115.5
#SCROLL 0.9956709956709957
100000000000000000000000100000000000100000000000,
#BPMCHANGE 115.3
#SCROLL 0.997398091934085
200000000000000000000000200000000000000000000000,
#BPMCHANGE 114.7
#SCROLL 1.002615518744551
100000000000100000000000200000000000100000000000,
#BPMCHANGE 116.5
#SCROLL 0.9871244635193133
100000000000000000000000200000000000000000000000,
#BPMCHANGE 115
#SCROLL 1
100000000000000000000000100000000000100000000000,
#BPMCHANGE 115.5
#SCROLL 0.9956709956709957
200000000000000000000000200000000000000000000000,
#BPMCHANGE 116.5
#SCROLL 0.9871244635193133
300000000000300000000000400000000000300000000000,
#BPMCHANGE 116
#SCROLL 0.99137931034
300000000000000000000000100000000000000000007000,
#BPMCHANGE 115.8
#SCROLL 0.9930915371329879
000000000000000000000000000000000000000000800000,
#BPMCHANGE 115
#SCROLL 1
100000000000000000000000200000000000000000007000,
000000000000000000000000000000000000000000800000,
#BPMCHANGE 116
#SCROLL 0.99137931034
100000000000100000000000100000000000000000000000,
#BPMCHANGE 117.5
#SCROLL 0.9787234042553191
100000000000000000000000200000000000000000000000,
#BPMCHANGE 116
#SCROLL 0.99137931034
100000000000100000000000100000000000000000000000,
#BPMCHANGE 115
#SCROLL 1
100000000000100000000000200000000000200000000000,
100000000000000000000000200000000000000000000000,
#BPMCHANGE 115.3
#SCROLL 0.997398091934085
100000000000200000000000200000000000100000000000,
#BPMCHANGE 114.8
#SCROLL 1.0017421602787457
200000000000000000000000200000000000000000000000,
#BPMCHANGE 116.3
#SCROLL 0.9888220120378333
100000000000100000000000200000000000200000000000,
600000000000000000080000000000000000000000000000,
100000000000000000000000100000000000100000000000,
200000000000000000000000200000000000000000000000,
100000000000000000000000100000000000100000000000,
#BPMCHANGE 117.8
#SCROLL 0.9762308998302207
300000000000000000000000400000000000000000007000,
#BPMCHANGE 117.3
#SCROLL 0.9803921568627452
00000008,
#BPMCHANGE 116.5
#SCROLL 0.9871244635193133
100000000000000000000000200000000000000000000000,
#BPMCHANGE 115
#SCROLL 1
100000000000000000000000100000000000100000000000,
#BPMCHANGE 115.8
#SCROLL 0.9930915371329879
200000000000000000000000200000000000000000000000,
#GOGOSTART
#BPMCHANGE 114.5
#SCROLL 1.0043668122270741
300000000000100000000000200000000000200000000000,
#BPMCHANGE 116.2
#SCROLL 0.9896729776247848
500000000000000000000000000000000000000008000000,
100000000000100000000000200000000000200000000000,
#BPMCHANGE 117
#SCROLL 0.9829059829
100000000000000000000000200000000000000000000000,
100000000000100000000000200000000000200000000000,
#BPMCHANGE 115
#SCROLL 1
700000000000000000000000000000000000000000000000,
#BPMCHANGE 117
#SCROLL 0.9829059829
000000000000000000000000800000000000000000000000,
#BPMCHANGE 116.8
#SCROLL 0.9845890410958904
100000000000100000000000200000000000000000000000,
#GOGOEND
#BPMCHANGE 114
#SCROLL 1.00877192982
100000000000100000000000200000000000100000000000,
#BPMCHANGE 116
#SCROLL 0.99137931034
100000000000000000000000200000000000000000000000,
#BPMCHANGE 117.2
#SCROLL 0.9812286689419795
100000000000000000000000100000000000100000000000,
#BPMCHANGE 116
#SCROLL 0.99137931034
200000000000000000000000200000000000000000000000,
100000000000100000000000200000000000100000000000,
#BPMCHANGE 98
#SCROLL 1.1734693877551021
90
#BPMCHANGE 90.5
#SCROLL 1.270718232044199
00
#BPMCHANGE 84
#SCROLL 1.369047619047619
0800,
#BPMCHANGE 116
#SCROLL 0.99137931034
100000000000000000000000100000000000100000000000,
#BPMCHANGE 115
#SCROLL 1
200000000000000000000000200000000000000000000000,
#BPMCHANGE 117
#SCROLL 0.9829059829
100000000000000000000000100000000000100000000000,
#BPMCHANGE 116.8
#SCROLL 0.9845890410958904
200000000000000000000000200000000000000000000000,
#BPMCHANGE 115.8
#SCROLL 0.9930915371329879
300000000000000000000000300000000000300000000000,
#BPMCHANGE 116.3
#SCROLL 0.9888220120378333
400000000000100000000000100000000000000000000000,
#BPMCHANGE 118
#SCROLL 0.97457627118
100000000000000000000000200000000000000000000000,
#BPMCHANGE 116
#SCROLL 0.99137931034
100100
#BPMCHANGE 101
#SCROLL 1.13861386139
100
#BPMCHANGE 92
#SCROLL 1.25
007,
#BPMCHANGE 116.8
#SCROLL 0.9845890410958904
000000000000000000000000000000000000000000000008,
#END
COURSE:Easy
LEVEL:2
BALLOON:6,6,6,15,5,11
SCOREINIT:1140
SCOREDIFF:730
#START
#SCROLL 0.9829059829
100000000000000000000000000000000000000000000000,
100000000000000000000000000000000000000000000000,
#BPMCHANGE 118.5
#SCROLL 0.97046413502
100000000000000000000000000000000000000000000000,
#BPMCHANGE 117
#SCROLL 0.9829059829
100000000000000000000000000000000000000000000000,
#BPMCHANGE 114
#SCROLL 1.00877192982
100000000000000000000000100000000000000000000000,
100000000000000000000000100000000000000000000000,
#BPMCHANGE 113
#SCROLL 1.01769911504
100000000000000000000000000000000000000000000000,
#BPMCHANGE 115.5
#SCROLL 0.9956709956709957
100000000000000000000000100000000000000000000000,
#BPMCHANGE 115.3
#SCROLL 0.997398091934085
200000000000000000000000000000000000000000000000,
#BPMCHANGE 114.7
#SCROLL 1.002615518744551
100000000000100000000000100000000000000000000000,
#BPMCHANGE 116.5
#SCROLL 0.9871244635193133
100000000000000000000000100000000000000000000000,
#BPMCHANGE 115
#SCROLL 1
100000000000000000000000100000000000000000000000,
#BPMCHANGE 115.5
#SCROLL 0.9956709956709957
100000000000000000000000200000000000000000000000,
#BPMCHANGE 116.5
#SCROLL 0.9871244635193133
300000000000300000000000300000000000000000000000,
#BPMCHANGE 116
#SCROLL 0.99137931034
300000000000000000000000000000000000000000007000,
#BPMCHANGE 115.8
#SCROLL 0.9930915371329879
00000008,
#BPMCHANGE 115
#SCROLL 1
100000000000000000000000000000000000000000007000,
00000008,
#BPMCHANGE 116
#SCROLL 0.99137931034
100000000000000000000000000000000000000000000000,
#BPMCHANGE 117.5
#SCROLL 0.9787234042553191
100000000000000000000000000000000000000000000000,
#BPMCHANGE 116
#SCROLL 0.99137931034
100000000000000000000000000000000000000000000000,
#BPMCHANGE 115
#SCROLL 1
100000000000000000000000100000000000000000000000,
100000000000000000000000000000000000000000000000,
#BPMCHANGE 115.3
#SCROLL 0.997398091934085
100000000000000000000000100000000000000000000000,
#BPMCHANGE 114.8
#SCROLL 1.0017421602787457
200000000000000000000000000000000000000000000000,
#BPMCHANGE 116.3
#SCROLL 0.9888220120378333
100000000000100000000000100000000000000000000000,
600000000000000000080000000000000000000000000000,
100000000000000000000000100000000000000000000000,
100000000000000000000000200000000000000000000000,
100000000000000000000000100000000000000000000000,
#BPMCHANGE 117.8
#SCROLL 0.9762308998302207
300000000000000000000000000000000000000000007000,
#BPMCHANGE 117.3
#SCROLL 0.9803921568627452
00000008,
#BPMCHANGE 116.5
#SCROLL 0.9871244635193133
100000000000000000000000000000000000000000000000,
#BPMCHANGE 115
#SCROLL 1
100000000000000000000000100000000000000000000000,
#BPMCHANGE 115.8
#SCROLL 0.9930915371329879
100000000000000000000000000000000000000000000000,
#GOGOSTART
#BPMCHANGE 114.5
#SCROLL 1.0043668122270741
300000000000100000000000100000000000000000000000,
#BPMCHANGE 116.2
#SCROLL 0.9896729776247848
500000000000000000000000000008000000000000000000,
100000000000000000000000100000000000000000000000,
#BPMCHANGE 117
#SCROLL 0.9829059829
100000000000000000000000200000000000000000000000,
100000000000100000000000100000000000000000000000,
#BPMCHANGE 115
#SCROLL 1
700000000000000000000000000000000000000000000000,
#BPMCHANGE 117
#SCROLL 0.9829059829
000000000000000000000000800000000000000000000000,
#BPMCHANGE 116.8
#SCROLL 0.9845890410958904
100000000000000000000000200000000000000000000000,
#GOGOEND
#BPMCHANGE 114
#SCROLL 1.00877192982
100000000000100000000000100000000000000000000000,
#BPMCHANGE 116
#SCROLL 0.99137931034
100000000000000000000000000000000000000000000000,
#BPMCHANGE 117.2
#SCROLL 0.9812286689419795
100000000000000000000000100000000000000000000000,
#BPMCHANGE 116
#SCROLL 0.99137931034
200000000000000000000000000000000000000000000000,
100000000000100000000000100000000000000000000000,
#BPMCHANGE 98
#SCROLL 1.1734693877551021
90
#BPMCHANGE 90.5
#SCROLL 1.270718232044199
00
#BPMCHANGE 84
#SCROLL 1.369047619047619
0800,
#BPMCHANGE 116
#SCROLL 0.99137931034
100000000000000000000000100000000000000000000000,
#BPMCHANGE 115
#SCROLL 1
100000000000000000000000000000000000000000000000,
#BPMCHANGE 117
#SCROLL 0.9829059829
100000000000000000000000100000000000000000000000,
#BPMCHANGE 116.8
#SCROLL 0.9845890410958904
200000000000000000000000000000000000000000000000,
#BPMCHANGE 115.8
#SCROLL 0.9930915371329879
300000000000000000000000300000000000000000000000,
#BPMCHANGE 116.3
#SCROLL 0.9888220120378333
300000000000000000000000000000000000000000000000,
#BPMCHANGE 118
#SCROLL 0.97457627118
100000000000000000000000000000000000000000000000,
#BPMCHANGE 116
#SCROLL 0.99137931034
100000
#BPMCHANGE 101
#SCROLL 1.13861386139
000
#BPMCHANGE 92
#SCROLL 1.25
007,
#BPMCHANGE 116.8
#SCROLL 0.9845890410958904
000000000000000000000000000000000000000000000008,
#END