Files
2023-06-15 19:15:39 -05:00

332 lines
13 KiB
Plaintext

//TJADB Project
TITLE:database
TITLEJA:database feat.TAKUMA(10-FEET)
SUBTITLE:--MAN WITH A MISSION feat. TAKUMA/Log Horizon
BPM:177
WAVE:database.ogg
OFFSET:-1.694
DEMOSTART:51.828
COURSE:Oni
LEVEL:7
BALLOON:3,3,3,3
SCOREINIT:700
SCOREDIFF:160
#START
300000000000000000000000000000000000000000000000,
100000100000200000000000000000000000200000000000,
000000000000200000000000000000000000200000200000,
100000100000200000000000000000000000200000000000,
000000000000200000000000000000000000200000200000,
100000100000200000000000000000000000200000000000,
000000000000200000000000000000000000200000200000,
100000100000200000000000000000000000200000000000,
000000000000200000000000200200100100200000000000,
100000100000200000000000100000000000200000100000,
000000100000200000000000100000100000200000000000,
100000100000200000000000100000000000200000100000,
000000100000200000000200100000100000200000000000,
100000100000200000000000100000000000200000100000,
000000100000200000000200100000100000200000000200,
100000100000200000000000100000000000200000100000,
100000000200100000400000000000200000200000200000,
100000100000100000000100200000000000100000200000,
000000200000100000200000000000100000200000200200,
100000100000100000000100200000100000100000200000,
200000100100100000200000000000100000400000000000,
100000100000100000000100200000000000100000200000,
000000200000100000200000000000100000200000200200,
100000100000100000000100200000000000100000200000,
000000200000100200000100200000100000400000000000,
300000100000200000000000100000100000000000200000,
000000100000200000000000100000100000200000200000,
100000100000200000000000100000100000000000200000,
000000100000200000000000100000200000200000100000,
100000100000200000000000100000100000000000200000,
000000100000200000000000100000100000200000200000,
100000100000200000000000100000100000000000200000,
000000100000200000000000100000200200200200200000,
100000100000200000000000100000100000200000100000,
000000100000200000100000100100200000100000200000,
100000100000200000100000100000100000200000100000,
200000200000200200200200200000000000000000000000,
#GOGOSTART
100000100000200000100000000000100000200000100000,
100000100000200000100000100100200000100000200000,
100000100000200000100000000000100000200000100000,
100000100000200000100000100100200000100000200200,
100000100000200000100000100000100000200000100000,
000000100000200000100000100100200000100000200000,
100000100000200000100000100000100000200000100000,
000000100000200000100000100000200200200200200000,
100000100000200000100000000000100000200000100000,
100000100000200000100000100100200000100000200000,
100000100000200000100000000000100000200200200000,
100000100000200000100000100100200000100000200200,
100000100000200000100000100100100000200000100000,
000000100000200000100000100100200000100000200000,
100000100000200000100000100100100000200000100000,
000000100000200000100000100000200200200200200000,
100000100000200000100000100100100000200000100000,
100000100000200200100000100100200000100000200000,
100000100000200000100000100100100000200000100000,
100100200200100000000000200000200200100100200200,
100000100000200000100000100100100000200000100000,
000000100100200000100000100000200200100200200200,
#GOGOEND
#SCROLL 2
700000000000800000000000700000000000800000000000,
#BARLINEOFF
700000000000800000000000700000000000800000000000,
#BARLINEON
#SCROLL 1.5
200200100000000000100000000000100000300000000000,
#END
COURSE:Hard
LEVEL:6
SCOREINIT:730
SCOREDIFF:170
#START
300000000000000000000000000000000000000000000000,
100000100000200000000000000000000000200000000000,
000000000000200000000000000000000000200000000000,
100000100000200000000000000000000000200000000000,
000000000000200000000000000000000000200000000000,
100000100000200000000000000000000000200000000000,
000000000000200000000000000000000000200000000000,
100000100000200000000000000000000000200000000000,
000000000000200000000000100100100000200000000000,
100000000000200000000000100000000000200000100000,
000000100000200000000000100000100000200000000000,
100000000000200000000000100000000000200000100000,
000000100000200000000000100000100000100000000000,
100000000000200000000000100000000000200000100000,
000000100000200000000000100000100000200000200000,
100000000000200000000000100000000000200000100000,
100000000200200000400000000000000000000000000000,
100000000000100000100000200000000000000000200000,
000000200000100000200000000000100000200000000000,
100000000000100000100000200000000000000000200000,
000000200000100000200000000000100000400000000000,
100000000000100000100000200000000000000000200000,
000000200000100000200000000000100000200000000000,
100000000000100000100000200000000000200000200000,
000000100000200200000200200000000000400000000000,
300000100000200000000000100000000000200000200000,
000000100000000000100000000000100000200000000000,
100000100000200000000000100000000000200000200000,
000000100000000000100000000000100000200000000000,
100000100000200000000000100000000000200000200000,
000000100000000000100000000000100000200000000000,
100000100000200000000000100000000000200000200000,
000000100000000000100000000000200000200000200000,
100000100000200000000000100000000000200000100000,
000000100000200000100000000000100000200000200000,
100000100000200000000000100000000000200000000000,
200000200200200000200200200000000000000000000000,
#GOGOSTART
100000100000200000100000000000100000200000100000,
000000100000000000200000100000200000100100100000,
100000100000200000100000000000100000200000000000,
100000000000200000100000000000100000100100100000,
100000100000200000000000100000100000200000100000,
000000100000200000100000000000100000200000200000,
100000100000200000000000100000100000200000100000,
000000100000200000100000000000100000200200200000,
100000100000200000100000000000100000200000100000,
000000100000000000200000100000200000100100100000,
100000100000200000100000000000100000200000000000,
100000000000200000100000000000100000100100100000,
100000100000200000000000100000100000200000100000,
000000100000200000100000000000100000200000200000,
100000100000200000000000100000100000200000100000,
000000100000200000100000000000200000200200200000,
100000100000200000100000000000100000200000100000,
000000100000200000100000100000100000100100100000,
100000100000200000100000000000100000200000100000,
100000200200200000000000100000200200200000200000,
100000100000200000100000000000100000200000100000,
000000100000200000100000000000100000200000000000,
#GOGOEND
#SCROLL 2
500000800000000000000000500000800000000000000000,
500000800000000000000000500000800000000000000000,
#SCROLL 1.5
100000100000000000100000000000100000300000000000,
#END
COURSE:Normal
LEVEL:6
BALLOON:10
SCOREINIT:880
SCOREDIFF:240
#START
000000000000000000000000000000000000000000000000,
100000100000100000000000000000000000000000000000,
000000000000000000000000000000000000000000000000,
100000100000100000000000000000000000000000000000,
000000000000000000000000000000000000000000000000,
100000100000100000000000000000000000000000000000,
000000000000000000000000000000000000000000000000,
100000100000100000000000000000000000000000000000,
200000200000200000000000200000000000000000000000,
100000000000000000000000100000000000000000000000,
100000000000100000000000100000100000100000000000,
100000000000000000000000100000000000000000000000,
100000000000100000000000100000100000100000000000,
100000000000000000000000100000000000000000000000,
100000000000100000000000100000100000100000000000,
100000000000100000000000100000100000100000000000,
100000100000000000400000000000000000000000000000,
100000000000100000000000200000000000000000100000,
000000100000000000100000000000200000200000000000,
100000000000100000000000200000000000000000100000,
000000100000000000100000000000200000200000000000,
100000000000100000000000200000000000000000100000,
000000100000000000100000000000200000200000000000,
100000000000100000000000200000000000100000100000,
000000500000000000000000000000800000000000000000,
100000000000100000000000100000000000200000200000,
000000200000000000200000000000100000000000000000,
100000000000100000000000100000000000200000200000,
000000200000000000200000000000100000000000000000,
100000000000100000000000100000000000200000200000,
000000200000000000200000000000100000000000000000,
100000000000100000000000100000000000200000200000,
000000200000000000200000000000200000200000000000,
100000000000100000000000100000000000100000100000,
000000100000000000100000000000200000200000000000,
700000000000000000000000000000000000000000000000,
000000000000000000800000000000000000000000000000,
#GOGOSTART
100000100000000000100000000000000000200000200000,
000000200000000000000000200000000000200000000000,
100000100000000000100000000000000000400000000000,
300000000000000000000000000000000000000000000000,
100000000000100000000000100000000000200000200000,
000000200000000000200000000000000000000000000000,
100000000000100000000000100000000000200000200000,
000000200000000000200000000000000000000000000000,
100000100000000000100000000000000000200000200000,
000000200000000000000000200000000000200000000000,
100000100000000000100000000000000000400000000000,
300000000000000000000000000000000000000000000000,
100000000000100000000000100000000000200000200000,
000000200000000000200000000000000000000000000000,
100000000000100000000000100000000000200000200000,
000000200000000000200000000000000000000000000000,
300000300000000000300000000000000000400000400000,
000000400000000000000000100000100000100000000000,
300000300000000000300000000000000000000000000000,
000000000000000000000000000000000000000000000000,
300000300000000000300000000000000000400000400000,
000000400000000000000000000000200000200000000000,
#GOGOEND
500000800000000000000000500000800000000000000000,
500000800000000000000000500000800000000000000000,
100000100000000000100000000000000000300000000000,
#END
COURSE:Easy
LEVEL:4
BALLOON:3
SCOREINIT:730
SCOREDIFF:240
#START
000000000000000000000000000000000000000000000000,
100000000000100000000000000000000000000000000000,
000000000000000000000000000000000000000000000000,
100000000000100000000000000000000000000000000000,
000000000000000000000000000000000000000000000000,
100000000000100000000000000000000000000000000000,
000000000000000000000000000000000000000000000000,
100000000000100000000000000000000000000000000000,
000000000000000000000000400000000000000000000000,
100000000000000000000000000000000000000000000000,
100000000000100000000000100000000000000000000000,
100000000000000000000000000000000000000000000000,
100000000000100000000000100000000000000000000000,
100000000000000000000000000000000000000000000000,
100000000000100000000000100000000000000000000000,
300000000000000000000000000000000000500000000000,
000000000000800000000000000000000000000000000000,
100000000000000000000000100000000000000000100000,
000000000000000000100000000000000000100000000000,
100000000000000000000000100000000000000000100000,
000000000000000000100000000000000000100000000000,
100000000000000000000000100000000000000000100000,
000000000000000000100000000000000000100000000000,
100000000000000000000000100000000000100000000000,
000000700000000000000000000000800000000000000000,
100000000000000000000000100000000000000000100000,
000000100000000000100000000000000000000000000000,
100000000000000000000000100000000000000000100000,
000000100000000000100000000000000000000000000000,
100000000000000000000000100000000000000000100000,
000000100000000000100000000000000000000000000000,
200000000000000000000000200000000000000000100000,
000000100000000000100000000000000000000000000000,
100000000000000000000000100000000000000000200000,
000000200000000000200000000000000000000000000000,
500000000000000000000000000000000000000000000000,
000000000000000000000000800000000000000000000000,
#GOGOSTART
300000000000000000300000000000000000300000000000,
000000300000000000000000000000000000000000000000,
300000000000000000300000000000000000400000000000,
400000000000000000000000000000000000000000000000,
100000000000000000000000100000000000000000200000,
000000200000000000200000000000000000000000000000,
100000000000000000000000100000000000000000200000,
000000200000000000200000000000000000000000000000,
300000000000000000300000000000000000300000000000,
000000300000000000000000000000000000000000000000,
300000000000000000300000000000000000400000000000,
400000000000000000000000000000000000000000000000,
100000000000000000000000100000000000000000200000,
000000200000000000200000000000000000000000000000,
100000000000000000000000100000000000000000200000,
000000200000000000200000000000000000000000000000,
300000000000000000300000000000000000300000000000,
000000300000000000000000000000000000000000000000,
300000000000000000300000000000000000000000000000,
000000000000000000000000000000000000000000000000,
300000000000000000300000000000000000300000000000,
000000300000000000000000000000000000000000000000,
#GOGOEND
500000800000000000000000500000800000000000000000,
500000800000000000000000500000800000000000000000,
600000000000800000000000000000000000300000000000,
#END