forked from ESE/ESE
322 lines
4.2 KiB
Plaintext
322 lines
4.2 KiB
Plaintext
//TJADB Project
|
|
TITLE:talking
|
|
TITLEJA:talking
|
|
SUBTITLE:--KANA-BOON/Subete ga F ni Naru THE PERFECT INSIDER
|
|
SUBTITLEJA:「すべてがFになる THE PERFECT INSIDER」より
|
|
BPM:140
|
|
WAVE:talking.ogg
|
|
OFFSET:-1.832
|
|
DEMOSTART:32.671
|
|
|
|
COURSE:Oni
|
|
LEVEL:8
|
|
BALLOON:2,2,2,16
|
|
SCOREINIT:790
|
|
SCOREDIFF:218
|
|
|
|
|
|
#START
|
|
|
|
|
|
#GOGOSTART
|
|
3000001120201021,
|
|
0010001120201021,
|
|
0010001120201022,
|
|
1022102210221030,
|
|
|
|
#GOGOEND
|
|
0010200010201021,
|
|
0010001020201021,
|
|
0010001020201022,
|
|
1022102210221003,
|
|
0010202010201021,
|
|
0010001020201021,
|
|
0010001020201022,
|
|
1022102210227080,
|
|
12201221,
|
|
0020002210201011,
|
|
2020102010221020,
|
|
1022022010201050,
|
|
000000000000000000000000000008000000100000200000,
|
|
3034,
|
|
|
|
#GOGOSTART
|
|
3002002210221020,
|
|
1022002012200020,
|
|
1022002010221020,
|
|
100000200200000000500000000008000000000000300000,
|
|
0022102012201020,
|
|
1110222011102020,
|
|
3002002210221020,
|
|
1022002012200020,
|
|
1022002010221020,
|
|
100000200200000000500000000008000000000000300000,
|
|
0022102012201020,
|
|
1110202010102000,
|
|
|
|
#GOGOEND
|
|
7080000000000022,
|
|
1020102212221000,
|
|
1220102212221000,
|
|
1020102101201222,
|
|
100000200000100000200200000000500000000008000000,
|
|
0000100010201021,
|
|
01221212,
|
|
0000100010201022,
|
|
1022102210227080,
|
|
2010221020102011,
|
|
2010201022102011,
|
|
2010201120102011,
|
|
200000200100000500000000008000000000200000500000,
|
|
000000000000000000000000000000000008000000700000,
|
|
0000000000802220,
|
|
|
|
#GOGOSTART
|
|
3002002210221020,
|
|
1022002012200020,
|
|
1022002010201022,
|
|
100000200200000000100000500000000008000000300000,
|
|
11212121,
|
|
33333340,
|
|
|
|
#GOGOEND
|
|
3001000000000000,
|
|
|
|
|
|
#END
|
|
|
|
|
|
COURSE:Hard
|
|
LEVEL:5
|
|
BALLOON:2,11
|
|
SCOREINIT:770
|
|
SCOREDIFF:248
|
|
|
|
|
|
#START
|
|
|
|
|
|
#GOGOSTART
|
|
3000002220101001,
|
|
0000002220101001,
|
|
0000002220101000,
|
|
3333,//4
|
|
|
|
#GOGOEND
|
|
1000000010002001,
|
|
0010000010002001,
|
|
01001020,
|
|
3333,
|
|
1000000010002001,
|
|
0010000010002001,
|
|
01001020,
|
|
3333,
|
|
20202022,
|
|
02022020,
|
|
22202020,
|
|
20220220,
|
|
11111112,
|
|
33,//18
|
|
|
|
#GOGOSTART
|
|
3001000020222020,
|
|
1001000020200000,
|
|
1001000010002020,
|
|
100000000100000000500000000000000008000000000000,
|
|
11202121,
|
|
1110101011102000,
|
|
3001000020222020,
|
|
1001000020200000,
|
|
1001000010002020,
|
|
100000000100000000500000000000000008000000000000,
|
|
11202121,
|
|
1110101011102000,//30
|
|
|
|
#GOGOEND
|
|
7080000000000011,
|
|
1020201110202000,
|
|
1010102220101000,
|
|
1010101100100000,
|
|
3333,
|
|
00404001,
|
|
01221221,
|
|
00404001,
|
|
01221220,
|
|
10121210,
|
|
10121210,
|
|
10121211,
|
|
10121015,
|
|
000000000000000000000000000000000008000000700000,
|
|
00000800,//45
|
|
|
|
#GOGOSTART
|
|
3001000020222020,
|
|
1001000020200000,
|
|
1001000010002020,
|
|
100000000100000000100000500000000008000000000000,
|
|
1011101011101010,
|
|
33333340,//51
|
|
|
|
#GOGOEND
|
|
3001000000000000,
|
|
|
|
|
|
#END
|
|
|
|
|
|
COURSE:Normal
|
|
LEVEL:5
|
|
BALLOON:2,12
|
|
SCOREINIT:900
|
|
SCOREDIFF:340
|
|
|
|
|
|
#START
|
|
|
|
|
|
#GOGOSTART
|
|
1011,
|
|
1011,
|
|
1011,
|
|
3333,//4
|
|
|
|
#GOGOEND
|
|
1012,
|
|
1012,
|
|
1012,
|
|
3333,
|
|
1012,
|
|
1012,
|
|
1012,
|
|
3333,
|
|
10101011,
|
|
1110,
|
|
10101011,
|
|
1110,
|
|
11101110,
|
|
33,//18
|
|
|
|
#GOGOSTART
|
|
3012,
|
|
10001100,
|
|
1012,
|
|
50000000000000000000000000000800000000000000000,
|
|
1212,
|
|
11101000,
|
|
3012,
|
|
10001100,
|
|
1012,
|
|
50000000000000000000000000000800000000000000000,
|
|
1212,
|
|
11101010,//30
|
|
|
|
#GOGOEND
|
|
78000000,
|
|
10201120,
|
|
10201120,
|
|
10101110,
|
|
3333,
|
|
00404001,
|
|
01201120,
|
|
00404001,
|
|
01201120,
|
|
10121012,
|
|
10121011,
|
|
10121012,
|
|
1119,
|
|
0009,
|
|
8,//45
|
|
|
|
#GOGOSTART
|
|
3012,
|
|
10001100,
|
|
1012,
|
|
500000000000000000000000000000000008000000000000,
|
|
11201120,
|
|
33303030,//51
|
|
|
|
#GOGOEND
|
|
3,
|
|
|
|
|
|
#END
|
|
|
|
|
|
COURSE:Easy
|
|
LEVEL:3
|
|
BALLOON:2,10
|
|
SCOREINIT:840
|
|
SCOREDIFF:470
|
|
|
|
|
|
#START
|
|
|
|
|
|
#GOGOSTART
|
|
0033,
|
|
0033,
|
|
0033,
|
|
600000000000000000000000000008000000000000000000,//4
|
|
|
|
#GOGOEND
|
|
11,
|
|
1011,
|
|
11,
|
|
600000000000000000000000000008000000000000000000,
|
|
11,
|
|
1011,
|
|
11,
|
|
600000000000000000000000000008000000000000000000,
|
|
0202,
|
|
0200,
|
|
0202,
|
|
0200,
|
|
1111,
|
|
33,//18
|
|
|
|
#GOGOSTART
|
|
3011,
|
|
11,
|
|
1011,
|
|
500000000000000000000000000008000000000000000000,
|
|
11,
|
|
1110,
|
|
3011,
|
|
11,
|
|
1011,
|
|
500000000000000000000000000008000000000000000000,
|
|
11,
|
|
1111,//30
|
|
|
|
#GOGOEND
|
|
78000000,
|
|
1101,
|
|
1101,
|
|
2220,
|
|
600000000000000000000000000008000000000000000000,
|
|
0440,
|
|
1011,
|
|
0440,
|
|
1111,
|
|
1011,
|
|
11,
|
|
1011,
|
|
500000000000000008000000000000000000900000000000,
|
|
0000,
|
|
8,//45
|
|
|
|
#GOGOSTART
|
|
3011,
|
|
11,
|
|
1011,
|
|
500000000000000000000000000008000000000000000000,
|
|
1011,
|
|
3333,//51
|
|
|
|
#GOGOEND
|
|
3,
|
|
|
|
|
|
#END
|
|
|