forked from ESE/ESE
652 lines
18 KiB
Plaintext
652 lines
18 KiB
Plaintext
//TJADB Project
|
|
TITLE:Fascinating Rhythm
|
|
TITLEJA:魅惑のリズム
|
|
SUBTITLE:--George Gershwin/Lady Be Good
|
|
BPM:160.56
|
|
WAVE:Fascinating Rhythm.ogg
|
|
OFFSET:-1.728
|
|
DEMOSTART:30.327
|
|
|
|
COURSE:Oni
|
|
LEVEL:6
|
|
BALLOON:15
|
|
|
|
|
|
#START
|
|
|
|
|
|
000000000000000000000000000000000000000000000000,
|
|
#BPMCHANGE 157.2
|
|
100000001000000000001000100000001000000000001000,
|
|
100000001000000000001000100000001000000000000000,
|
|
#BPMCHANGE 160.87
|
|
100000001000200000001000200000000000100000000000,
|
|
100000000000200000002000100000000000200000000000,
|
|
000000002000100000001000200000000000100000000000,
|
|
#BPMCHANGE 158.41
|
|
100000000000000000000000200000002000200000002000,
|
|
000000001000200000000000100000001000200000000000,
|
|
#BPMCHANGE 158.25
|
|
100000000000200000002000100000000000200000000000,
|
|
000000001000200000002000100000000000200000000000,
|
|
#BPMCHANGE 161.82
|
|
500000000000000000000008000000000000200000000000,
|
|
#BPMCHANGE 160.56
|
|
100000000000100000001000200000000000100000001000,
|
|
100000000000100000001000200000000000100000000000,
|
|
000000000000100000002000100000001000200000000000,
|
|
#BPMCHANGE 158.1
|
|
500000000000000008000000200000002000200000002000,
|
|
000000001000100000001000100000002000100000002000,
|
|
000000001000100000001000100000002000100000002000,
|
|
#BPMCHANGE 159.63
|
|
000000001000200000001000200000001000200000000000,
|
|
100000001000100000001000100000002000200000002000,
|
|
100000000000200000000000100000002000200000000000,
|
|
#BPMCHANGE 161.24
|
|
100000000000200000000000100000001000200000000000,
|
|
100000000000200000000000100000002000100000000000,
|
|
100000001000100000000000100000002000100010001000,
|
|
#BPMCHANGE 159.17
|
|
100000000000200000000000100000002000200000000000,
|
|
100000000000200000000000100000001000200000000000,
|
|
100000000000200000000000100000002000100000000000,
|
|
#BPMCHANGE 158.51
|
|
100000000000200000001000100000002000100010001000,
|
|
100000000000100000000000100000000000100000000000,
|
|
200000002000100000002000000000002000100000000000,
|
|
#BPMCHANGE 150.61
|
|
500000000000000000000008000000000000000000000000,
|
|
#BPMCHANGE 154.57
|
|
100000002000200000000000300000002000200000000000,
|
|
#BPMCHANGE 160.25
|
|
100000000000200000000000200000000000200000000000,
|
|
#BPMCHANGE 153.69
|
|
100000000000200000002000000000000000200000000000,
|
|
#BPMCHANGE 138.27
|
|
100000001000000020000000100000001000000020000000,
|
|
#BPMCHANGE 151.17
|
|
100000000000100000000000100000000000100000000000,
|
|
|
|
#GOGOSTART
|
|
#BPMCHANGE 158.71
|
|
100000001000200000001000100000002000000000000000,
|
|
#BPMCHANGE 160.87
|
|
100000001000200000001000000000001000200000000000,
|
|
100010001000200000001000000000001000200000001000,
|
|
#BPMCHANGE 159.75
|
|
100010001000100000000000000000000000000000000000,
|
|
100000001000200000001000100000002000000000000000,
|
|
100000001000200000001000100000001000200000000000,
|
|
100010001000200000001000000000001000100000001000,
|
|
100010001000100000000000000000000000000000000000,
|
|
|
|
#GOGOEND
|
|
#BPMCHANGE 159.32
|
|
000000000000100000000000100000000000100000000000,
|
|
100000000000200000002000000000002000200000000000,
|
|
#BPMCHANGE 152
|
|
000000000000300000000000400000000000000000000000,
|
|
#BPMCHANGE 135.11
|
|
400000000000000000000000300000000000000000000000,
|
|
#BPMCHANGE 136.21
|
|
100000000000200000000000100000000000000000000000,
|
|
#BPMCHANGE 142.09
|
|
100000000000000000000000
|
|
#BPMCHANGE 127.6
|
|
000000000000000000000000,
|
|
|
|
#MEASURE 7/4
|
|
#BPMCHANGE 105.66
|
|
100000001000200000001000
|
|
#BPMCHANGE 169.9
|
|
#SCROLL 0.62
|
|
200000000000
|
|
#SCROLL 1
|
|
200000000000200000000000200000000000
|
|
#BPMCHANGE 142.56
|
|
200000000000,
|
|
|
|
#GOGOSTART
|
|
#MEASURE 4/4
|
|
#BPMCHANGE 169.1
|
|
100100200000100000200000100100200000000000000000,
|
|
200000100100200000100100200000000000100000001000,
|
|
100000000000400000001000100000000000400000001000,
|
|
100000000000400000000000300000000000400000000000,
|
|
100000200000100000200000100000200000100000200000,
|
|
100000200000100000200000100000000000200000002000,
|
|
100000001000200000000000200000002000100000001000,
|
|
100000001000200000002000100000001000200000000000,
|
|
|
|
#GOGOEND
|
|
#BPMCHANGE 156
|
|
100000000000000000000000100000000000100000000000,
|
|
100000000000200000002000200000000000200000000000,
|
|
#BPMCHANGE 157.06
|
|
100000000000000000000000000000000000000000000000,
|
|
200000002000100000000000200000002000100000000000,
|
|
#BPMCHANGE 153.69
|
|
100000000000100000000000200000000000200000000000,
|
|
100000002000100000002000200000000000200000000000,
|
|
#BPMCHANGE 139.67
|
|
100000001000000020000000100000001000000020000000,
|
|
#BPMCHANGE 149.26
|
|
100000000000100000000000100000000000100000000000,
|
|
|
|
#GOGOSTART
|
|
#BPMCHANGE 160.25
|
|
100000001000200000001000100000002000000000000000,
|
|
#BPMCHANGE 159.94
|
|
100000001000200000001000000000001000200000000000,
|
|
100010001000200000001000000000001000200000002000,
|
|
100010001000200000002000100010001000200000000000,
|
|
100000001000200000001000100000002000000000000000,
|
|
100000001000200000001000000000001000200000000000,
|
|
100010001000200000001000000000001000100000002000,
|
|
100010001000200000002000100010001000200000000000,
|
|
|
|
#GOGOEND
|
|
#BPMCHANGE 159.94
|
|
000000000000200000000000100000000000100000002000,
|
|
100000002000200000002000000000002000200000000000,
|
|
#BPMCHANGE 148.44
|
|
200000000000100000000000200000000000200000000000,
|
|
#MEASURE 2/4
|
|
#BPMCHANGE 121.6
|
|
1,
|
|
#BPMCHANGE 139.7
|
|
3,
|
|
#MEASURE 6/4
|
|
#BPMCHANGE 131.67
|
|
100000000000200000000000100000000000000000000000
|
|
#BPMCHANGE 121.6
|
|
100000000000000000000000,
|
|
#BPMCHANGE 95.7
|
|
900000000000000000000000
|
|
#BPMCHANGE 164.72
|
|
000000000000000000000000800000000000000000000000,
|
|
#MEASURE 4/4
|
|
000000000000000000000000300000000000000000000000,
|
|
|
|
|
|
#END
|
|
|
|
|
|
COURSE:Hard
|
|
LEVEL:5
|
|
BALLOON:10
|
|
SCOREINIT:650
|
|
SCOREDIFF:150
|
|
|
|
|
|
#START
|
|
|
|
|
|
,
|
|
#BPMCHANGE 157.2
|
|
101000101000,
|
|
101000101001,
|
|
#BPMCHANGE 160.87
|
|
100101100200,
|
|
100101100200,
|
|
000101100100,
|
|
#BPMCHANGE 158.41
|
|
100000202202,
|
|
000100102200,
|
|
#BPMCHANGE 158.25
|
|
100100102200,
|
|
000101100100,
|
|
#BPMCHANGE 161.82
|
|
500000000000000000000008000000000000200000000000,
|
|
#BPMCHANGE 160.56
|
|
100102200101,
|
|
100102200100,
|
|
000102200100,
|
|
#BPMCHANGE 158.1
|
|
500000000000000008000000100000000000100000002000,
|
|
000100102202,
|
|
000100102202,
|
|
#BPMCHANGE 159.63
|
|
0111,
|
|
500000000000000000000008000000000000100000000000,
|
|
101101100000,
|
|
#BPMCHANGE 161.24
|
|
101101100101,
|
|
101100000100,
|
|
500000000000000000000000000000000008000000000000,
|
|
#BPMCHANGE 159.17
|
|
101101100000,
|
|
202202200101,
|
|
101100000100,
|
|
#BPMCHANGE 158.51
|
|
100202202200,
|
|
1011,
|
|
100202001100,
|
|
#BPMCHANGE 150.61
|
|
500000000000000000000000000000000008000000000000,
|
|
#BPMCHANGE 154.57
|
|
102200302200,
|
|
#BPMCHANGE 160.25
|
|
12,
|
|
#BPMCHANGE 153.69
|
|
100102000200,
|
|
#BPMCHANGE 138.27
|
|
111112,
|
|
#BPMCHANGE 151.17
|
|
1,
|
|
|
|
#GOGOSTART
|
|
#BPMCHANGE 158.71
|
|
101101102001,
|
|
#BPMCHANGE 160.87
|
|
101100100200,
|
|
101101002200,
|
|
#BPMCHANGE 159.75
|
|
202200202200,
|
|
101101102000,
|
|
101100100200,
|
|
101101002200,
|
|
202200202200,
|
|
|
|
#GOGOEND
|
|
#BPMCHANGE 159.32
|
|
1012,
|
|
100101001100,
|
|
#BPMCHANGE 152
|
|
0111,
|
|
#BPMCHANGE 135.11
|
|
13,
|
|
#BPMCHANGE 136.21
|
|
12,
|
|
#BPMCHANGE 142.09
|
|
1
|
|
#BPMCHANGE 127.6
|
|
0,
|
|
#MEASURE 7/4
|
|
#BPMCHANGE 105.66
|
|
101101
|
|
#BPMCHANGE 169.9
|
|
#SCROLL 0.62
|
|
100
|
|
#SCROLL 1
|
|
100100100
|
|
#BPMCHANGE 142.56
|
|
100,
|
|
|
|
#GOGOSTART
|
|
#MEASURE 4/4
|
|
#BPMCHANGE 169.1
|
|
20221100,
|
|
100000000000200000100000100000000000100000001000,
|
|
100201100201,
|
|
1232,
|
|
11101110,
|
|
11111010,
|
|
101100201100,
|
|
100200202200,
|
|
|
|
#GOGOEND
|
|
#BPMCHANGE 156
|
|
1012,
|
|
12,
|
|
#BPMCHANGE 157.06
|
|
1,
|
|
200100202100,
|
|
#BPMCHANGE 153.69
|
|
12,
|
|
12,
|
|
#BPMCHANGE 139.67
|
|
111112,
|
|
#BPMCHANGE 149.26
|
|
1,
|
|
|
|
#GOGOSTART
|
|
#BPMCHANGE 160.25
|
|
101101102000,
|
|
#BPMCHANGE 159.94
|
|
101101000200,
|
|
101101002200,
|
|
202200202200,
|
|
101101102000,
|
|
3340,
|
|
101101002200,
|
|
202200202200,
|
|
|
|
#GOGOEND
|
|
1011,
|
|
100101001100,
|
|
#BPMCHANGE 148.44
|
|
0122,
|
|
#MEASURE 2/4
|
|
#BPMCHANGE 121.6
|
|
1,
|
|
#BPMCHANGE 139.7
|
|
3,
|
|
#MEASURE 6/4
|
|
#BPMCHANGE 131.67
|
|
1210
|
|
#BPMCHANGE 121.6
|
|
10,
|
|
#BPMCHANGE 95.7
|
|
9
|
|
#BPMCHANGE 164.72
|
|
08,
|
|
#MEASURE 4/4
|
|
03,
|
|
|
|
|
|
#END
|
|
|
|
|
|
COURSE:Normal
|
|
LEVEL:5
|
|
SCOREINIT:800
|
|
SCOREDIFF:190
|
|
|
|
|
|
#START
|
|
|
|
|
|
000000000000000000000000000000000000000000000000,
|
|
#BPMCHANGE 157.2
|
|
100000001000000000000000100000000000000000000000,
|
|
100000001000000000000000100000000000000000000000,
|
|
#BPMCHANGE 160.87
|
|
100000000000000000000000100000000000000000000000,
|
|
100000000000100000000000100000000000200000000000,
|
|
000000000000100000000000000000000000100000000000,
|
|
#BPMCHANGE 158.41
|
|
100000000000000000000000200000000000200000002000,
|
|
000000000000100000000000000000000000100000000000,
|
|
#BPMCHANGE 158.25
|
|
100000000000100000000000100000000000100000000000,
|
|
000000000000100000000000100000000000100000000000,
|
|
#BPMCHANGE 161.82
|
|
500000000000000000000080000000000000200000000000,
|
|
#BPMCHANGE 160.56
|
|
100000000000000000000000100000000000000000000000,
|
|
100000000000100000000000100000000000200000000000,
|
|
000000000000100000000000000000000000100000000000,
|
|
#BPMCHANGE 158.1
|
|
500000000000000000000000000000000080000000000000,
|
|
000000000000100000000000100000000000100000000000,
|
|
000000000000100000000000100000000000100000000000,
|
|
#BPMCHANGE 159.63
|
|
000000000000100000000000100000000000200000000000,
|
|
500000000000000000000000000000000080000000000000,
|
|
100000000000200000000000000000000000100000000000,
|
|
#BPMCHANGE 161.24
|
|
100000000000200000000000000000000000100000000000,
|
|
100000000000200000000000000000000000100000000000,
|
|
100000000000100000000000000000000000000000000000,
|
|
#BPMCHANGE 159.17
|
|
100000000000200000000000000000000000100000000000,
|
|
100000000000200000000000000000000000100000000000,
|
|
100000000000200000000000000000000000200000000000,
|
|
#BPMCHANGE 158.51
|
|
100000000000100000000000100000000000100000000000,
|
|
100000000000000000000000100000000000000000000000,
|
|
100000000000100000001000000000000000000000000000,
|
|
#BPMCHANGE 150.61
|
|
500000000000000000000000000000000080000000000000,
|
|
#BPMCHANGE 154.57
|
|
100000000000200000000000100000000000200000000000,
|
|
#BPMCHANGE 160.25
|
|
100000000000000000000000200000000000000000000000,
|
|
#BPMCHANGE 153.69
|
|
100000000000100000001000000000000000000000000000,
|
|
#BPMCHANGE 138.27
|
|
100000000000000000000000100000001000000010000000,
|
|
#BPMCHANGE 151.17
|
|
100000000000000000000000000000000000000000000000,
|
|
#BPMCHANGE 158.71
|
|
#GOGOSTART
|
|
100000001000100000000000000000000000200000000000,
|
|
#BPMCHANGE 160.87
|
|
100000001000100000000000000000000000000000000000,
|
|
100000001000100000000000000000000000200000000000,
|
|
#BPMCHANGE 159.75
|
|
100000001000100000000000000000000000000000000000,
|
|
100000001000100000000000000000000000200000000000,
|
|
100000001000100000000000000000000000100000000000,
|
|
100000001000100000000000000000000000200000000000,
|
|
100000001000100000000000000000000000000000000000,
|
|
#BPMCHANGE 159.32
|
|
#GOGOEND
|
|
100000000000000000000000000000000000000000000000,
|
|
100000000000000000001000000000001000100000000000,
|
|
#BPMCHANGE 152
|
|
000000000000100000000000100000000000100000000000,
|
|
#BPMCHANGE 135.11
|
|
100000000000000000000000300000000000000000000000,
|
|
#BPMCHANGE 136.21
|
|
100000000000000000000000200000000000000000000000,
|
|
#BPMCHANGE 142.09
|
|
100000000000000000500000
|
|
#BPMCHANGE 127.6
|
|
000000000000000008000000,
|
|
#BPMCHANGE 105.66
|
|
#MEASURE 7/4
|
|
000000000000000000000000
|
|
#BPMCHANGE 169.9
|
|
000000000000000000000000000000000000000000000000
|
|
#BPMCHANGE 142.56
|
|
000000000000,
|
|
#BPMCHANGE 169.1
|
|
#GOGOSTART
|
|
#MEASURE 4/4
|
|
100000000000100000000000100000000000100000000000,
|
|
100000000000100000000000200000000000000000000000,
|
|
100000000000100000000000200000000000000000000000,
|
|
100000000000100000000000200000000000200000000000,
|
|
100000000000100000000000100000000000100000000000,
|
|
100000000000100000000000200000000000000000000000,
|
|
100000000000100000000000200000000000000000000000,
|
|
100000000000100000000000200000000000200000000000,
|
|
#BPMCHANGE 156
|
|
#GOGOEND
|
|
000000000000000000000000100000000000100000000000,
|
|
100000000000000000000000200000000000000000000000,
|
|
#BPMCHANGE 157.06
|
|
100000000000000000000000000000000000000000000000,
|
|
200000000000100000000000200000000000100000000000,
|
|
#BPMCHANGE 153.69
|
|
000000000000000000000000200000000000000000000000,
|
|
100000000000000000000000200000000000000000000000,
|
|
#BPMCHANGE 139.67
|
|
100000000000000000000000100000001000000010000000,
|
|
#BPMCHANGE 149.26
|
|
100000000000000000000000000000000000000000000000,
|
|
#BPMCHANGE 160.25
|
|
#GOGOSTART
|
|
100000001000100000000000000000000000200000000000,
|
|
#BPMCHANGE 159.94
|
|
100000001000100000000000000000000000000000000000,
|
|
100000001000100000000000000000000000200000000000,
|
|
100000001000100000000000000000000000000000000000,
|
|
100000001000100000000000000000000000200000000000,
|
|
100000001000100000000000000000000000100000000000,
|
|
100000001000100000000000000000000000200000000000,
|
|
100000001000100000000000000000000000000000000000,
|
|
|
|
#GOGOEND
|
|
100000000000000000000000200000000000000000000000,
|
|
100000000000000000001000000000001000100000000000,
|
|
#BPMCHANGE 148.44
|
|
100000000000000000000000200000000000200000000000,
|
|
#BPMCHANGE 121.6
|
|
#MEASURE 2/4
|
|
100000000000000000000000,
|
|
#BPMCHANGE 139.7
|
|
300000000000000000000000,
|
|
#BPMCHANGE 131.67
|
|
#MEASURE 4/4
|
|
100000000000000000000000100000000000000000000000,
|
|
#BPMCHANGE 121.6
|
|
100000000000000000000000
|
|
#BPMCHANGE 95.7
|
|
000000000000000000000000,
|
|
#BPMCHANGE 164.72
|
|
500000000000000000000000000000000000000000000080,
|
|
000000000000000000000000300000000000000000000000,
|
|
|
|
|
|
#END
|
|
|
|
|
|
COURSE:Easy
|
|
LEVEL:4
|
|
BALLOON:13,13
|
|
SCOREINIT:650
|
|
SCOREDIFF:160
|
|
|
|
|
|
#START
|
|
|
|
|
|
000000000000000000000000000000000000000000000000,
|
|
#BPMCHANGE 157.2
|
|
100000001000000000000000000000000000000000000000,
|
|
100000001000000000000000000000000000000000000000,
|
|
#BPMCHANGE 160.87
|
|
100000000000000000000000100000000000000000000000,
|
|
100000000000100000000000100000000000000000000000,
|
|
100000000000000000000000100000000000000000000000,
|
|
#BPMCHANGE 158.41
|
|
100000000000000000000000200000000000000000001000,
|
|
000000000000000000000000100000000000100000000000,
|
|
#BPMCHANGE 158.25
|
|
000000000000100000000000100000000000100000000000,
|
|
000000000000100000000000100000000000100000000000,
|
|
#BPMCHANGE 161.82
|
|
500000000000000000000080000000000000000000000000,
|
|
#BPMCHANGE 160.56
|
|
100000000000000000000000100000000000000000000000,
|
|
100000000000100000000000100000000000000000000000,
|
|
100000000000000000000000100000000000000000000000,
|
|
#BPMCHANGE 158.1
|
|
100000000000000000000000200000000000000000001000,
|
|
000000000000000000000000100000000000100000000000,
|
|
000000000000000000000000100000000000100000000000,
|
|
#BPMCHANGE 159.63
|
|
000000000000000000000000100000000000000000000000,
|
|
500000000000000000000080000000000000000000000000,
|
|
100000000000100000000000000000000000000000000000,
|
|
#BPMCHANGE 161.24
|
|
100000000000100000000000000000000000000000000000,
|
|
100000000000100000000000000000000000100000000000,
|
|
100000000000100000000000000000000000000000000000,
|
|
#BPMCHANGE 159.17
|
|
100000000000100000000000000000000000000000000000,
|
|
100000000000100000000000000000000000000000000000,
|
|
100000000000100000000000000000000000100000000000,
|
|
#BPMCHANGE 158.51
|
|
100000000000100000000000000000000000000000000000,
|
|
100000000000000000000000200000000000000000000000,
|
|
100000000000000000000000200000000000000000000000,
|
|
#BPMCHANGE 150.61
|
|
500000000000000000000000000000000080000000000000,
|
|
#BPMCHANGE 154.57
|
|
100000000000000000000000300000000000000000000000,
|
|
#BPMCHANGE 160.25
|
|
100000000000000000000000200000000000000000000000,
|
|
#BPMCHANGE 153.69
|
|
100000000000000000000000200000000000000000000000,
|
|
#BPMCHANGE 138.27
|
|
100000000000000000000000100000001000000000000000,
|
|
#BPMCHANGE 151.17
|
|
300000000000000000000000000000000000000000000000,
|
|
#BPMCHANGE 158.71
|
|
#GOGOSTART
|
|
100000000000100000000000000000000000000000000000,
|
|
#BPMCHANGE 160.87
|
|
100000000000100000000000000000000000000000000000,
|
|
100000000000100000000000000000000000200000000000,
|
|
#BPMCHANGE 159.75
|
|
200000000000200000000000000000000000000000000000,
|
|
100000000000200000000000000000000000000000000000,
|
|
100000000000200000000000000000000000000000000000,
|
|
100000000000200000000000000000000000200000000000,
|
|
200000000000200000000000000000000000000000000000,
|
|
#BPMCHANGE 159.32
|
|
#GOGOEND
|
|
100000000000000000000000000000000000000000000000,
|
|
100000000000000000001000000000000000100000000000,
|
|
#BPMCHANGE 152
|
|
000000000000000000000000100000000000000000000000,
|
|
#BPMCHANGE 135.11
|
|
100000000000000000000000300000000000000000000000,
|
|
#BPMCHANGE 136.21
|
|
100000000000000000000000100000000000000000000000,
|
|
#BPMCHANGE 142.09
|
|
100000000000000000000000
|
|
#BPMCHANGE 127.6
|
|
000000000000000000000000,
|
|
#BPMCHANGE 105.66
|
|
#MEASURE 7/4
|
|
500000000000000000000080
|
|
#BPMCHANGE 169.9
|
|
000000000000000000000000000000000000000000000000
|
|
#BPMCHANGE 142.56
|
|
000000000000,
|
|
#BPMCHANGE 169.1
|
|
#GOGOSTART
|
|
#MEASURE 4/4
|
|
700000000000000000000000000000000000000000000000,
|
|
000000000000000000000000000800000000000000000000,
|
|
100000000000100000000000100000000000000000000000,
|
|
200000000000200000000000200000000000000000000000,
|
|
700000000000000000000000000000000000000000000000,
|
|
000000000000000000000000000800000000000000000000,
|
|
100000000000100000000000100000000000000000000000,
|
|
200000000000200000000000200000000000100000000000,
|
|
#BPMCHANGE 156
|
|
#GOGOEND
|
|
000000000000000000000000200000000000000000000000,
|
|
100000000000000000000000200000000000000000000000,
|
|
#BPMCHANGE 157.06
|
|
500000000000000000000080000000000000000000000000,
|
|
400000000000000000000000400000000000000000000000,
|
|
#BPMCHANGE 153.69
|
|
100000000000000000000000200000000000000000000000,
|
|
100000000000000000000000200000000000000000000000,
|
|
#BPMCHANGE 139.67
|
|
300000000000000000000000100000000000000000000000,
|
|
#BPMCHANGE 149.26
|
|
300000000000000000000000000000000000000000000000,
|
|
#BPMCHANGE 160.25
|
|
#GOGOSTART
|
|
100000000000100000000000000000000000000000000000,
|
|
#BPMCHANGE 159.94
|
|
100000000000100000000000000000000000000000000000,
|
|
100000000000100000000000000000000000200000000000,
|
|
200000000000200000000000000000000000000000000000,
|
|
100000000000200000000000000000000000000000000000,
|
|
100000000000200000000000000000000000000000000000,
|
|
100000000000200000000000000000000000200000000000,
|
|
200000000000200000000000000000000000000000000000,
|
|
#BPMCHANGE 159.94
|
|
#GOGOEND
|
|
100000000000000000000000000000000000000000000000,
|
|
100000000000000000001000000000000000100000000000,
|
|
#BPMCHANGE 148.44
|
|
000000000000500000000000000000000000000000000000,
|
|
#BPMCHANGE 121.6
|
|
000000000000080000000000
|
|
#BPMCHANGE 139.7
|
|
000000000000000000000000,
|
|
#BPMCHANGE 131.67
|
|
100000000000000000000000100000000000000000000000,
|
|
#BPMCHANGE 121.6
|
|
100000000000000000000000
|
|
#BPMCHANGE 95.7
|
|
000000000000000000000000,
|
|
#BPMCHANGE 164.72
|
|
500000000000000000000000000000000000000000000080,
|
|
000000000000000000000000300000000000000000000000,
|
|
|
|
|
|
#END
|
|
|