Files
2023-06-15 19:05:10 -05:00

580 lines
9.6 KiB
Plaintext

//TJADB Project
TITLE:Jump Up, Super Star! -Short Version-
TITLEJA:Jump Up, Super Star! Short Version
SUBTITLE:--Naoto Kubo feat. Kate Davis/Super Mario Odyssey
SUBTITLEJA:「スーパーマリオ オデッセイ」より
BPM:200.98
WAVE:Jump Up, Super Star! -Short Version-.ogg
OFFSET:-1.825
DEMOSTART:42.153
COURSE:Oni
LEVEL:8
BALLOON:20,2,11,20
SCOREINIT:660
SCOREDIFF:173
#START
#SCROLL 1.01
100000000000200000000000100000000000200000000000,
#BPMCHANGE 207.87
#SCROLL 0.98
100000000000200000000000100000001000200000000000,
#BPMCHANGE 200.87
#SCROLL 1.01
100000000000200000000000100000000000200000000000,
#BPMCHANGE 203.85
#SCROLL 1
100000000000200000000000100000002000200000000000,
100000000000200000000000100000000000200000000000,
#BPMCHANGE 208.52
#SCROLL 0.97
100000000000200000000000300000002000200000004000,
#BPMCHANGE 201.79
#SCROLL 1.01
000000300000000000000000300000000000200000700000,
#BPMCHANGE 202.14
#SCROLL 1
000000000000000000000000000000000000000000000000,
#BPMCHANGE 202.67
000000000000000000008000000000001000100000001000,
#BPMCHANGE 202.5
000000000000000000004000000000001000100000001000,
000000000000000000004000000000001000100000001000,
#BPMCHANGE 208.45
#SCROLL 0.97
000000000000200000000000100000000000200000000000,
#BPMCHANGE 203.67
#SCROLL 1
100000001000000000002000000000002000000000000000,
100000000000200000000000100000001000200000001000,
#BPMCHANGE 204.05
#SCROLL 0.99
000000000000200000000000100000001000200000001000,
#BPMCHANGE 204.61
000000004000000000001000100000004000000000001000,
#BPMCHANGE 202.67
#SCROLL 1
100000004000000000001000100000002000100000001000,
#BPMCHANGE 205.35
#SCROLL 0.99
000000000000000000004000000000001000100000001000,
#BPMCHANGE 209.57
#SCROLL 0.97
000000000000000000004000000000004000000000004000,
#BPMCHANGE 199.77
#SCROLL 1.02
000000000000200000000000100000000000200000000000,
#BPMCHANGE 202.2
#SCROLL 1
100000001000000000002000000000002000200000002000,
#BPMCHANGE 205.94
#SCROLL 0.98
100000000000200000000000100000001000200000001000,
#BPMCHANGE 202.79
#SCROLL 1
000000000000200000000000100000001000200000005000,
#BPMCHANGE 204
#SCROLL 0.99
000000000000000000000000000000000008000000000000,
000000001000000000000000200000000000200000000000,
300000002000200000003000000000002000200000003000,
000000000000400000000000000000000000200000000000,
100000000000200000000000100000002000000000001000,
#BPMCHANGE 202.89
#SCROLL 1
200000000000100000002000000000001000100000000000,
#BARLINEOFF
#BPMCHANGE 202.2
000000000000000000000000000000700000800000000000,
#BPMCHANGE 206.98
#SCROLL 0.98
000000000000000000000000000000000000000000000000,
000000000000608000000000000000000000000000000000,
#BARLINEON
#BPMCHANGE 206.7
300000001000100000004000000000002000200000003000,
000000001000100000004000000000002000200020002000,
#BPMCHANGE 198.8
#SCROLL 1.02
000000003000000030000000300000003000000030000000,
#BPMCHANGE 205.08
#SCROLL 0.99
400000000000200000000000200000002000000000003000,
#GOGOSTART
#BPMCHANGE 202.93
#SCROLL 1
000000000000200000000000100000001000200000001000,
#BPMCHANGE 204
#SCROLL 0.99
000000000000200000000000100000002000200000001000,
000000000000200000000000100000001000200000001000,
000000000000200000000000100000002000200000001000,
000000000000200000000000100000001000200000001000,
000000000000200000000000100000002000000000003000,
#BPMCHANGE 207.15
#SCROLL 0.98
000000004000000000003000000000004000000000003000,
#BPMCHANGE 204.68
#SCROLL 0.99
000000002000100000000000200000004000000000003000,
#BPMCHANGE 203.43
#SCROLL 1
000000000000200000000000100000001000200000001000,
#BPMCHANGE 201.58
#SCROLL 1.01
000000000000200000000000100000002000200000002000,
#BPMCHANGE 203.23
#SCROLL 1
100000000000100000000000200000000000200000000000,
#BPMCHANGE 204
#SCROLL 0.99
300000000000100000004000000000001000200000000000,
#BPMCHANGE 203.45
#SCROLL 1
300000000000200000001000000000001000200000000000,
300000000000200000000000300000000000200000000000,
#BPMCHANGE 205.1
#SCROLL 0.99
700000000000000000000000000000000000000000000000,
#BPMCHANGE 204
800000000000100000000000200000004000000000003000,
000000001000200000000000100000001000200000001000,
000000002000200000000000100000002000200000001000,
000000001000200000000000100000001000200000001000,
000000002000200000000000100000002000200000001000,
000000001000200000000000100000001000200000001000,
000000000000400000000000000000002000200000000000,
300000000000200000001000000000002000200000001000,
000000002000100000000000200000004000000000003000,
000000001000200000000000100000001000200000001000,
000000002000200000000000100000002000200000002000,
100000000000100000000000200000000000200000000000,
300000000000100000004000000000001000200000000000,
100000000000200000000000100000002000200000001000,
000000000000200000000000100000001000200000000000,
100000000000200000000000100000002000200000001000,
000000000000500000000000000000000008000000000000,
100000001000200000000000100000000000200000000000,
#BPMCHANGE 207.13
#SCROLL 0.98
300000000000100010001000200000001000100000004000,
#BPMCHANGE 200.96
#SCROLL 1.01
000000300000000000000000300000000000200000300000,
#BPMCHANGE 200.19
000000002000200000600000000000000000000000000000,
#BPMCHANGE 209.83
#SCROLL 0.97
000000000000000000000000000000000000008000000000,
#GOGOEND
#BPMCHANGE 202.23
#SCROLL 1
100000000000000000100000000000100000200000100000,
#BPMCHANGE 204
#SCROLL 0.99
100000000000000000100000000000100000200000100000,
100000000000200000100000000000200000100000100000,
000000000000200000000000000000000000200000000000,
100000000000000000100000000000100000200000100000,
100000000000000000100000000000100000200000100000,
100000000000200000100000000000100000100000200000,
#BPMCHANGE 207.09
#SCROLL 0.98
000000000000200000000000000000000000200000000000,
#GOGOSTART
#BPMCHANGE 201
#SCROLL 1.01
300000000000200000100000000000100000200000100000,
#BPMCHANGE 203
#SCROLL 1
100000000000200000100000000000100000200000100000,
#BPMCHANGE 204.17
#SCROLL 0.99
100000000000200000100000000000200000100000200000,
#BPMCHANGE 203.32
#SCROLL 1
000000200000000000000000200000001000100000002000,
#BPMCHANGE 205.03
#SCROLL 0.99
100000000000200000100000000000100000200000100000,
#BPMCHANGE 204.17
100000000000200000100000000000300000300000000000,
300000000000000000000000400000000400000000300000,
#BPMCHANGE 202.87
#SCROLL 1
000000000000100010001000200000002000000000000000,
#GOGOEND
#BPMCHANGE 200.78
#SCROLL 1.01
300000000000000000400000000000000000300000000000,
#BPMCHANGE 204.26
#SCROLL 0.99
000000400000000000000000300000000000400000000000,
#BPMCHANGE 208.95
#SCROLL 0.97
300000000000000000001000100000001000000000001000,
#BPMCHANGE 198.59
#SCROLL 1.02
000000001000100000000000000000000000000000000000,
#BPMCHANGE 200.35
#SCROLL 1.01
700000000000000000000000000000000000000000000000,
000000000000000000000000800000000000000200200100,
100000000000000000000000000000000000000000000000,
#END
COURSE:Hard
LEVEL:5
BALLOON:22,4,11,2,15,8,8,30
#START
#BPMCHANGE 204
11,
1,
22,
2,
11,
1033,
09000000,
,
0080,
000003000000,
000003000000,
0111,
200002000000,
0110,
000100100005,
,
8,
000003000000,
000007000008,
0111,
200002000000,
1110,
000100100005,
,
8,
7,
0800,
0100,
200002000000,
0000000000780000,
0000000000680000,
9,
,
8,
400000000001,
#GOGOSTART
000100100002,
000000000001,
000100100002,
000000000001,
000100100002,
000100100005,
,
800000000001,
000100100002,
,
1111,
200002000000,
300003000300,
34,
6,
800000000001,
000100100002,
000000000001,
000100100002,
000000000001,
000100100002,
0202,
5,
800000000001,
000100100002,
,
1111,
200002000000,
100100007000,
0008,
100100007000,
0008,
3303,
40004006,
,
,
8,
#GOGOEND
01101000,
1100,
01101000,
2200,
01101000,
1100,
01101000,
2200,
#GOGOSTART
01101000,
1100,
01101000,
2200,
03303000,
40400330,
300000404060,
00080000,
#GOGOEND
9,
,
,
0800,
3,
#END
COURSE:Normal
LEVEL:4
BALLOON:14,3,12,12,4,4,19
#START
#BPMCHANGE 204
11,
1,
11,
1,
11,
1033,
09000000,
,
08,
000003000000,
000003000000,
01,
1,
02,
000000200005,
,
8,
000003000000,
000007000008,
01,
1,
12,
000000200005,
,
8,
7,
0800,
,
1,
0003,
0000000000680000,
9,
,
8,
000000000001,
#GOGOSTART
000000100001,
000000000001,
000000100001,
000000000001,
000000100001,
000000100005,
,
800000000001,
000000100001,
,
11,
2,
3,
33,
6,
800000000001,
000000100001,
000000000001,
000000100001,
000000000001,
000000100001,
0300,
5,
800000000001,
000000100001,
,
11,
2,
100000007000,
0008,
100000007000,
0008,
3,
30004006,
,
000000000000000000000000000000000000000000000008,
#GOGOEND
11,
1100,
11,
1100,
22,
2200,
22,
2200,
#GOGOSTART
11,
1100,
11,
11,
33,
3303,
300000400060,
00080000,
#GOGOEND
9,
,
,
0800,
3,
#END
COURSE:Easy
LEVEL:3
BALLOON:11,3,11,10,9,16
#START
#BPMCHANGE 204
3,
,
3,
,
3,
03,
09000000,
,
08,
000003000000,
000003000000,
01,
1,
01,
000000100005,
,
8,
000003000000,
000007000008,
01,
1,
11,
000000100005,
,
8,
7,
0800,
,
2,
0003,
000000004000,
9,
,
8,
000000000001,
#GOGOSTART
01,
000000000001,
01,
000000000001,
01,
000000100005,
,
800000000001,
01,
0,
22,
2,
3,
33,
6,
800000000001,
01,
000000000001,
01,
000000000001,
01,
0700,
,
800000000001,
01,
,
22,
2,
3,
,
3,
,
3,
30003006,
,
,
8,
#GOGOEND
11,
1,
11,
2,
11,
1,
11,
2,
#GOGOSTART
33,
3,
33,
4,
33,
3003,
300000400060,
00080000,
#GOGOEND
9,
,
,
0800,
3,
#END