Files
2023-06-15 19:05:10 -05:00

408 lines
4.5 KiB
Plaintext

//TJADB Project
TITLE:M@STERPIECE
TITLEJA:M@STERPIECE
SUBTITLE:--Satoru Kousaki feat. 765PRO ALLSTARS/THE iDOLM@STER ONE FOR ALL
SUBTITLEJA:「アイドルマスター」より
BPM:128
WAVE:MASTERPIECE.ogg
OFFSET:-2.132
DEMOSTART:82.042
COURSE:Oni
LEVEL:6
BALLOON:13,13
SCOREINIT:670
SCOREDIFF:178
#START
10200121,
00210212,
10200121,
00220220,
10101141,
01202040,
3333,
33,
600000000000000000000000000000000008000000000000,
3300,
1000202210102000,
1000202110202000,
1000202210102000,
1000202110202000,
1000202210102010,
01210220,
1000202110102000,
1110222011102220,
1000202210102020,
1000202110202000,
1000202210102020,
1000202110202000,
1000202210102010,
01210220,
1000202110102000,
3333,
#GOGOSTART
40000011
#GOGOEND
10112020,
7008,
#GOGOSTART
40000011
#GOGOEND
10112020,
7000000000008011,
1010201000102011,
1010201110102022,
1010202210102011,
2011201120112011,
20202121,
#GOGOSTART
0010201210102010,
1022201000102010,
0010201210102010,
2022202000202012,
1010200010104012,
1022203000004000,
3000300030030060,
000000000000000008000000000000100000200000100000,
0010201210102010,
1022201000102010,
0010201210202010,
2022202000202012,
1010200010104012,
1022203000004000,
3333,
3022220030222200,
600000000000000000000000000000000008000000000000,
3300,
1000202220102010,
0022201000201020,
1000202220102010,
0022202000202000,
10101141,
01202040,
3333,
3022202030222020,
6,
000000000000000000000000000000000008000000000000,
#GOGOEND
000
#BPMCHANGE 118
0,
#BPMCHANGE 122.3
#SCROLL 1.04
20
#BPMCHANGE 111.36
#SCROLL 1.14
20,
222000000000000000000000000000000000000000000000,
#END
COURSE:Hard
LEVEL:4
BALLOON:10,10,9
SCOREINIT:620
SCOREDIFF:180
#START
0202,
0202,
0202,
00200220,
10101141,
01202040,
3333,
33,
600000000000000000000000000000000008000000000000,
3300,
10201120,
1202,
10201120,
1202,
10201121,
01210020,
10211020,
1122,
10201120,
1202,
10201120,
1202,
10201121,
01210020,
10211020,
3333,//26
#GOGOSTART
4000
#GOGOEND
0112,//27
7008,//28
#GOGOSTART
4000
#GOGOEND
0122,//29
7008,
10110011,
1111,
30033000,
600000000000000000000000000000000000000000000008,
00000121,//35
#GOGOSTART
01201120,
10210121,
01211120,
10210220,
10101141,
10130040,
3000300030030070,
00008121,
01201120,
10210121,
01211220,
10210220,
10101141,
10130040,
3333,
33,
600000000000000000000000000000000008000000000000,
3300,
10200121,
00210212,
10200121,
00220220,
10101141,
01202040,
3333,
33,
6,
000000000000000000000000000000000008000000000000,//63
#GOGOEND
,
#BPMCHANGE 122
#SCROLL 1.05
2
#BPMCHANGE 111
#SCROLL 1.15
2,
2,
#END
COURSE:Normal
LEVEL:3
BALLOON:7,7,13,6
#START
0202,
0202,
0202,
00200220,
0404,
0404,
3333,
33,
600000000000000000000000000000000008000000000000,
3300,
1202,
1202,
1202,
1202,
10200011,
00110020,
1202,
1111,
1202,
1202,
1202,
1202,
10200011,
00110020,
1202,
3333,//26
#GOGOSTART
4000
#GOGOEND
0111,//27
7008,//28
#GOGOSTART
4000
#GOGOEND
0222,//29
7008,
10100011,
1111,
30033000,
9009,
8,//35
#GOGOSTART
1111,
10030000,
1111,
10030000,
0404,
0404,
3000300030030070,
08,
1111,
10030000,
1111,
10030000,
0404,
0404,
3333,
33,
600000000000000000000000000000000008000000000000,
3300,
0202,
0202,
0202,
00200220,
0404,
0404,
3333,
33,
6,
000000000000000000000000000000000008000000000000,//63
#GOGOEND
,
#BPMCHANGE 122
#SCROLL 1.05
2
#BPMCHANGE 111
#SCROLL 1.15
2,
2,
#END
COURSE:Easy
LEVEL:2
BALLOON:5,5,13,5
#START
0002,
0002,
0002,
00000220,
0404,
0404,
3333,
33,
600000000000000000000000000000000008000000000000,
3300,
1202,
0202,
1202,
0202,
1202,
1202,
1202,
1111,
1202,
0202,
1202,
0202,
1202,
1202,
1202,
3333,//26
#GOGOSTART
4
#GOGOEND
0,//27
7008,//28
#GOGOSTART
4
#GOGOEND
0,//29
7008,
1100,
1111,
33,
9009,
80000006,//35
#GOGOSTART
,
000000000000000000000000000008000000000000600000,
,
000000000000000000000000000008000000000000000000,
0404,
0404,
30303007,
00008006,
,
000000000000000000000000000008000000000000600000,
,
000000000000000000000000000008000000000000000000,
0404,
0404,
3333,
33,
600000000000000000000000000000000008000000000000,
3300,
0202,
0202,
0202,
00200220,
0404,
0404,
3333,
33,
6,
000000000000000000000000000000000008000000000000,//63
#GOGOEND
,
#BPMCHANGE 122
#SCROLL 1.05
2
#BPMCHANGE 111
#SCROLL 1.15
2,
2,
#END