forked from ESE/ESE
797 lines
9.9 KiB
Plaintext
797 lines
9.9 KiB
Plaintext
//TJADB Project
|
|
TITLE:≠MM
|
|
TITLEJA:≠MM
|
|
SUBTITLE:--Linda AI-CUE
|
|
SUBTITLEJA:Linda AI-CUE
|
|
BPM:149
|
|
WAVE:≠MM.ogg
|
|
OFFSET:-2.067
|
|
DEMOSTART:19.870
|
|
|
|
COURSE:Oni
|
|
LEVEL:10
|
|
BALLOON:27,7
|
|
SCOREINIT:280
|
|
SCOREDIFF:65
|
|
|
|
|
|
#START
|
|
|
|
|
|
#SCROLL 1.0067114093959733
|
|
31
|
|
#BPMCHANGE 139
|
|
#SCROLL 1.079136690647482
|
|
31,
|
|
#BPMCHANGE 130
|
|
#SCROLL 1.1538461538461537
|
|
42
|
|
#BPMCHANGE 124
|
|
#SCROLL 1.2096774193548387
|
|
42,
|
|
#MEASURE 2/4
|
|
#BPMCHANGE 144
|
|
#SCROLL 1.0416666666666667
|
|
3,
|
|
#BARLINEOFF
|
|
#MEASURE 8/4
|
|
#BPMCHANGE 91.8
|
|
#SCROLL 1.6348773841961852
|
|
7800,
|
|
#BARLINEON
|
|
#BPMCHANGE 220
|
|
#SCROLL 0.5
|
|
30000020202011101110102020111020,
|
|
11111010211020102222201000221000,
|
|
10111010102222122212222020102010,
|
|
11111020221000201111101011112222,
|
|
10001010202011101000101110201110,
|
|
21111020002010102222201000221000,
|
|
10111010202011101000101110201010,
|
|
21111020221000201111102010111020,
|
|
10001010202011101000101110200020,
|
|
10111020002011102222201000221000,
|
|
10111010202011101000101110201010,
|
|
11111020221000201111101011112222,
|
|
10002010202111102000201110102210,
|
|
12111120002011102222201000221000,
|
|
10211010202011102000201021102010,
|
|
21221020221000201122101010111010,
|
|
10001010202011101000201110102010,
|
|
12111120002011102222201000221000,
|
|
10211010202011112000201110102010,
|
|
21111020221000201111101011112220,
|
|
10202010202010202010201012211212,
|
|
10202010201012121010201012211212,
|
|
10202010202010202010201012211212,
|
|
10202010202012121010201012211212,
|
|
10202010202010201010201022112212,
|
|
10202010202012121010201022112212,
|
|
10201010202012121010201012212212,
|
|
1001021021112111,
|
|
22000202222022002020002020202020,
|
|
00020202202020202200220020202202,
|
|
20002020222020220020002220022022,
|
|
20002202002202002222000202202002,
|
|
02020022202002202202200002200022,
|
|
00202222002022020002220202202020,
|
|
22020202202020200002022020002020,
|
|
20222000002020222020000202202202,
|
|
00002022022220000000000000030000,
|
|
#MEASURE 4/4
|
|
#BPMCHANGE 252
|
|
#SCROLL 1
|
|
10101101,
|
|
10110101,
|
|
22101101,
|
|
1011101010101111,
|
|
12121121,
|
|
12112121,
|
|
01101101,
|
|
70080000,
|
|
|
|
#GOGOSTART
|
|
2210002111101020,
|
|
1022102012221020,
|
|
2210112210101120,
|
|
2111211112221222,
|
|
1010002111202010,
|
|
1021102011221020,
|
|
2210112210101120,
|
|
2111202010201120,
|
|
2210002021102210,
|
|
2111202011112020,
|
|
1120112210202021,
|
|
1121112022221222,
|
|
1010002111202010,
|
|
2021201021112020,
|
|
2111200010212020,
|
|
2111201222101110,
|
|
|
|
#GOGOEND
|
|
#MEASURE 3/4
|
|
100010100021,
|
|
101010201110,
|
|
222210001020,
|
|
002010111011,
|
|
100010102110,
|
|
001000111120,
|
|
#MEASURE 4/4
|
|
0010122210100010,
|
|
200000100100100000200000100000100100100100001000,
|
|
#MEASURE 3/4
|
|
0100100100100,
|
|
100000001000100100100100100100100100,
|
|
222222221010,
|
|
002010111011,
|
|
102020002222,
|
|
222210102220,
|
|
#MEASURE 4/4
|
|
0010122210100000,
|
|
3,
|
|
2222111122111122,
|
|
#MEASURE 3/4
|
|
111122203000,
|
|
#MEASURE 4/4
|
|
2222111122111122,
|
|
1111222030111110,
|
|
|
|
#GOGOSTART
|
|
2020221010211120,
|
|
1020221010202011,
|
|
1022221022101022,
|
|
1021112010201021,
|
|
1020222210111020,
|
|
1011112000211021,
|
|
1011102010202210,
|
|
1020102110201110,
|
|
2011112000211020,
|
|
1021101020212010,
|
|
2010211010211120,
|
|
2111102110212021,
|
|
1020222210201022,
|
|
1110201012222210,
|
|
|
|
#GOGOEND
|
|
04000300,
|
|
0040003000112220,
|
|
#BARLINEOFF
|
|
#BPMCHANGE 156
|
|
03,
|
|
#BARLINEON
|
|
#MEASURE 6/4
|
|
221121120000000030000000,
|
|
400000000000000000000000101020201020100200200200100000000000000000000000,
|
|
#MEASURE 4/4
|
|
4,
|
|
#MEASURE 2/4
|
|
3,
|
|
#MEASURE 4/4
|
|
400000100200101010202000300000000000300000000000,
|
|
#BARLINEOFF
|
|
,
|
|
#MEASURE 6/12
|
|
000000000
|
|
#SCROLL 1.5
|
|
022,
|
|
#BARLINEON
|
|
#MEASURE 4/4
|
|
1,
|
|
|
|
|
|
#END
|
|
|
|
|
|
COURSE:Hard
|
|
LEVEL:8
|
|
BALLOON:19,12,15,5,6,7,17
|
|
SCOREINIT:350
|
|
SCOREDIFF:80
|
|
|
|
#START
|
|
3131,
|
|
#BPMCHANGE 119.7
|
|
#SCROLL 1.2
|
|
4
|
|
#BPMCHANGE 135
|
|
#SCROLL 1.06
|
|
2
|
|
#BPMCHANGE 120
|
|
#SCROLL 1.2
|
|
4
|
|
#BPMCHANGE 125
|
|
#SCROLL 1.15
|
|
2,
|
|
#BPMCHANGE 134
|
|
#SCROLL 1.06
|
|
#MEASURE 2/4
|
|
3,
|
|
#BPMCHANGE 67
|
|
#SCROLL 2.3
|
|
#BARLINEOFF
|
|
#MEASURE 4/4
|
|
78,
|
|
#MEASURE 7/16
|
|
,
|
|
#BPMCHANGE 220
|
|
#SCROLL 0.5
|
|
#MEASURE 8/4
|
|
#BARLINEON
|
|
1002021110110110,
|
|
1011101020220220,
|
|
1022201110202220,
|
|
1001220201102220,
|
|
#BPMCHANGE 220
|
|
1011111010111110,
|
|
2222022220110110,
|
|
1011111010110110,
|
|
1001220200000000,
|
|
1011111010111110,
|
|
2222022220110110,
|
|
1011111010111010,
|
|
7008,
|
|
1022222020110110,
|
|
2222022220110110,
|
|
1022222020110110,
|
|
1001220200000000,
|
|
1011111010111110,
|
|
2222022220110110,
|
|
1011111010110111,
|
|
1001220200002220,
|
|
1011011111011011,
|
|
2021022022222022,
|
|
1011011111011011,
|
|
2021022022222022,
|
|
1011011111011011,
|
|
2021022022220222,
|
|
1011011110110111,
|
|
2021022022221111,
|
|
2001001100400000,
|
|
2002002020001000,
|
|
3002201110700000,
|
|
0000000080001110,
|
|
3002201100400000,
|
|
3001102200100000,
|
|
3002201110400000,
|
|
1110001110101110,
|
|
40000030002020000000000000030000,
|
|
#BPMCHANGE 252.1
|
|
#MEASURE 4/4
|
|
#SCROLL 1
|
|
10101001,
|
|
10110001,
|
|
11101101,
|
|
7008,
|
|
12021202,
|
|
12021202,
|
|
01101101,
|
|
7008,//50
|
|
|
|
#GOGOSTART
|
|
11011102,
|
|
12121201,
|
|
11011102,
|
|
12121201,
|
|
11011102,
|
|
12121201,
|
|
11011102,
|
|
12121201,
|
|
11022202,
|
|
12121201,
|
|
11022202,
|
|
12121201,
|
|
11022202,
|
|
12121201,
|
|
11022202,
|
|
12121202,//66
|
|
|
|
#MEASURE 3/4
|
|
#GOGOEND
|
|
201101,
|
|
010110,
|
|
111011,
|
|
011101,
|
|
101121,
|
|
010111,
|
|
#MEASURE 4/4
|
|
01202101,
|
|
#BPMCHANGE 256.5
|
|
#SCROLL 0.99
|
|
500000000000000000000000000000000008000000001000,
|
|
#BPMCHANGE 252.1
|
|
#SCROLL 1
|
|
#MEASURE 13/16
|
|
0100100100100,
|
|
#MEASURE 3/4
|
|
10070000000,
|
|
800011,
|
|
011011,
|
|
101121,
|
|
010122,
|
|
#MEASURE 4/4
|
|
01202100,
|
|
3,
|
|
22102100,
|
|
#MEASURE 3/4
|
|
010120,
|
|
#MEASURE 4/4
|
|
22102100,
|
|
01012000,//86
|
|
|
|
#GOGOSTART
|
|
22210111,
|
|
02211221,
|
|
02211112,
|
|
01122111,
|
|
02221112,
|
|
01110112,
|
|
21122112,
|
|
02221221,
|
|
02220111,
|
|
02211221,
|
|
12212112,
|
|
01122111,
|
|
02221221,
|
|
0010101010222220,//100
|
|
|
|
#GOGOEND
|
|
04000300,
|
|
0040003000111110,
|
|
#BARLINEOFF
|
|
#BPMCHANGE 155
|
|
0
|
|
#BPMCHANGE 150.1
|
|
#SCROLL 1.068
|
|
3,
|
|
#MEASURE 6/4
|
|
#BPMCHANGE 155
|
|
#BARLINEON
|
|
#SCROLL 1
|
|
2222222
|
|
#BPMCHANGE 156.5
|
|
#SCROLL 0.99
|
|
20000000030000000,
|
|
#MEASURE 6/4
|
|
#BPMCHANGE 158
|
|
#SCROLL 0.98
|
|
40000000
|
|
#BPMCHANGE 161
|
|
#SCROLL 0.96
|
|
11111110
|
|
#BPMCHANGE 159
|
|
#SCROLL 0.97
|
|
30000000,
|
|
#BPMCHANGE 155
|
|
#SCROLL 1
|
|
#MEASURE 4/4
|
|
4,
|
|
#MEASURE 2/4
|
|
3,
|
|
#MEASURE 4/4
|
|
40222220
|
|
#BPMCHANGE 160
|
|
#SCROLL 0.97
|
|
3000
|
|
#BPMCHANGE 154.6
|
|
#SCROLL 1
|
|
7000,
|
|
#BARLINEOFF
|
|
,
|
|
#BPMCHANGE 155
|
|
#MEASURE 6/12
|
|
800000000
|
|
#SCROLL 1.5
|
|
011,
|
|
#BARLINEON
|
|
#MEASURE 4/4
|
|
1,
|
|
,
|
|
#END
|
|
|
|
COURSE:Normal
|
|
LEVEL:7
|
|
BALLOON:15,8,4,5,10,5,5,12
|
|
|
|
#START
|
|
3131,
|
|
#BPMCHANGE 119.7
|
|
#SCROLL 1.2
|
|
4
|
|
#BPMCHANGE 135
|
|
#SCROLL 1.06
|
|
2
|
|
#BPMCHANGE 120
|
|
#SCROLL 1.2
|
|
4
|
|
#BPMCHANGE 125
|
|
#SCROLL 1.15
|
|
2,
|
|
#BPMCHANGE 134
|
|
#SCROLL 1.06
|
|
#MEASURE 2/4
|
|
3,
|
|
#BPMCHANGE 67
|
|
#SCROLL 2.3
|
|
#BARLINEOFF
|
|
#MEASURE 4/4
|
|
78,
|
|
#MEASURE 7/16
|
|
,
|
|
#BPMCHANGE 220
|
|
#SCROLL 0.5
|
|
#MEASURE 8/4
|
|
#BARLINEON
|
|
1001001000101010,
|
|
100000000100000000100000000000000000200000002000,
|
|
1001001000101010,
|
|
1002000200000000,
|
|
#BPMCHANGE 220
|
|
1001011000101010,
|
|
2002002020110110,
|
|
1001011000101010,
|
|
2002000000001010,
|
|
1001011000101010,
|
|
2002002020110110,
|
|
1001011000101010,
|
|
2002000000001010,
|
|
1001011000101010,
|
|
2002002020110110,
|
|
1001011000101010,
|
|
2002000000001010,
|
|
1001011000101010,
|
|
2002002020110110,
|
|
1001011000101010,
|
|
2002000000000000,
|
|
1001000000001010,
|
|
2002022000002020,
|
|
1001001000001010,
|
|
2002022000002020,
|
|
1001000000001010,
|
|
2002022000002020,
|
|
7008,
|
|
2002022030003000,
|
|
1001001100400000,
|
|
2002002020001000,
|
|
30030400,
|
|
0000000000001110,
|
|
3003000000400000,
|
|
30030003,
|
|
30030400,
|
|
11011011,
|
|
3,
|
|
#BPMCHANGE 252.1
|
|
#MEASURE 4/4
|
|
#SCROLL 1
|
|
10001100,
|
|
1100,
|
|
10001100,
|
|
7008,
|
|
11010100,
|
|
11010101,
|
|
,
|
|
7008,//50
|
|
|
|
#GOGOSTART
|
|
10010100,
|
|
10010100,
|
|
01000100,
|
|
01010100,
|
|
20020200,
|
|
20020200,
|
|
02000200,
|
|
02020200,
|
|
10010100,
|
|
10010100,
|
|
01000100,
|
|
01010100,
|
|
20020200,
|
|
20020200,
|
|
02000200,
|
|
02020200,//66
|
|
|
|
#MEASURE 3/4
|
|
#GOGOEND
|
|
1,
|
|
101,
|
|
011,
|
|
011,
|
|
101,
|
|
111,
|
|
#MEASURE 4/4
|
|
0101,
|
|
#BPMCHANGE 256.5
|
|
#SCROLL 0.99
|
|
10010100,
|
|
#BPMCHANGE 252.1
|
|
#SCROLL 1
|
|
#MEASURE 13/16
|
|
7,
|
|
#MEASURE 3/4
|
|
,
|
|
8,
|
|
11,
|
|
011010,
|
|
,
|
|
#MEASURE 4/4
|
|
0110,
|
|
3,
|
|
7008,
|
|
#MEASURE 3/4
|
|
,
|
|
#MEASURE 4/4
|
|
7008,
|
|
,//86
|
|
|
|
#GOGOSTART
|
|
11010100,
|
|
02020200,
|
|
01010100,
|
|
02020200,
|
|
01010100,
|
|
02020200,
|
|
01010100,
|
|
02020200,
|
|
01020100,
|
|
01020100,
|
|
02010200,
|
|
02010200,
|
|
01020102,
|
|
01020100,//100
|
|
|
|
#GOGOEND
|
|
03000300,
|
|
04000400,
|
|
#BPMCHANGE 155
|
|
#BARLINEOFF
|
|
0000,
|
|
#BPMCHANGE 150.1
|
|
#SCROLL 1.068
|
|
3000,
|
|
#MEASURE 6/4
|
|
#BPMCHANGE 155
|
|
#BARLINEON
|
|
#SCROLL 1
|
|
4000000
|
|
#BPMCHANGE 156.5
|
|
#SCROLL 0.99
|
|
00000000030000000,
|
|
#BPMCHANGE 158
|
|
#SCROLL 0.98
|
|
4
|
|
#BPMCHANGE 161
|
|
#SCROLL 0.96
|
|
0
|
|
#BPMCHANGE 159
|
|
#SCROLL 0.97
|
|
3,
|
|
#BPMCHANGE 155
|
|
#SCROLL 1
|
|
#MEASURE 4/4
|
|
4,
|
|
#MEASURE 2/4
|
|
3,
|
|
#MEASURE 4/4
|
|
40
|
|
#BPMCHANGE 160
|
|
#SCROLL 0.97
|
|
3
|
|
#BPMCHANGE 154.6
|
|
#SCROLL 1
|
|
7,
|
|
#BARLINEOFF
|
|
,
|
|
#BPMCHANGE 155
|
|
#MEASURE 6/12
|
|
800000000
|
|
#SCROLL 1.5
|
|
000,
|
|
#MEASURE 4/4
|
|
#BARLINEON
|
|
3,
|
|
,
|
|
#END
|
|
|
|
COURSE:Easy
|
|
LEVEL:5
|
|
BALLOON:10,6,4,3,8,3,3,8
|
|
|
|
#START
|
|
33,
|
|
#BPMCHANGE 119.7
|
|
#SCROLL 1.2
|
|
4
|
|
#BPMCHANGE 135
|
|
#SCROLL 1.06
|
|
0
|
|
#BPMCHANGE 120
|
|
#SCROLL 1.2
|
|
4
|
|
#BPMCHANGE 125
|
|
#SCROLL 1.15
|
|
0,
|
|
#BPMCHANGE 134
|
|
#SCROLL 1.06
|
|
#MEASURE 2/4
|
|
3,
|
|
#BPMCHANGE 67
|
|
#SCROLL 2.3
|
|
#BARLINEOFF
|
|
#MEASURE 4/4
|
|
78,
|
|
#MEASURE 7/16
|
|
,
|
|
#BPMCHANGE 220
|
|
#SCROLL 0.5
|
|
#MEASURE 8/4
|
|
#BARLINEON
|
|
1001001000000000,
|
|
1001001000000000,
|
|
1001001000000000,
|
|
1000200200000000,
|
|
#BPMCHANGE 220
|
|
1001001000101000,
|
|
2002002000010010,
|
|
1001001000101000,
|
|
2002000000001010,
|
|
1001001000101000,
|
|
2002002000010010,
|
|
1001001000101000,
|
|
2002000000000000,
|
|
1001001000202000,
|
|
2002002000010010,
|
|
1001001000202000,
|
|
2002000000001010,
|
|
1001001000002020,
|
|
2002002000010010,
|
|
1001001000202000,
|
|
2002000000000000,
|
|
1001000000001010,
|
|
2002002000002020,
|
|
1001001000001010,
|
|
2002002000002020,
|
|
1001000000001010,
|
|
2002002000002020,
|
|
7008,
|
|
2043,
|
|
1001001000400000,
|
|
2002002020000000,
|
|
30030400,
|
|
00000011,
|
|
3003000000400000,
|
|
30030003,
|
|
30030400,
|
|
11011011,
|
|
30040000,
|
|
#BPMCHANGE 252.1
|
|
#MEASURE 4/4
|
|
#SCROLL 1
|
|
1110,
|
|
1,
|
|
1110,
|
|
7008,
|
|
11,
|
|
10010101,
|
|
,
|
|
7008,//50
|
|
|
|
#GOGOSTART
|
|
10010000,
|
|
10010000,
|
|
10010000,
|
|
10010100,
|
|
20020000,
|
|
20020000,
|
|
20020000,
|
|
20020200,
|
|
10010000,
|
|
10010000,
|
|
10010000,
|
|
10010100,
|
|
20020000,
|
|
20020000,
|
|
20020000,
|
|
20020200,//66
|
|
|
|
#MEASURE 3/4
|
|
#GOGOEND
|
|
1,
|
|
1,
|
|
1,
|
|
1,
|
|
2,
|
|
2,
|
|
#MEASURE 4/4
|
|
2002,
|
|
#BPMCHANGE 256.5
|
|
#SCROLL 0.99
|
|
0220,
|
|
#BPMCHANGE 252.1
|
|
#SCROLL 1
|
|
#MEASURE 13/16
|
|
7,
|
|
#MEASURE 3/4
|
|
,
|
|
8,
|
|
1,
|
|
1,
|
|
11,
|
|
#MEASURE 4/4
|
|
00100100,
|
|
3,
|
|
7008,
|
|
#MEASURE 3/4
|
|
,
|
|
#MEASURE 4/4
|
|
7008,
|
|
,//86
|
|
|
|
#GOGOSTART
|
|
10010000,
|
|
02000200,
|
|
10010000,
|
|
02000200,
|
|
10010000,
|
|
02000200,
|
|
10010000,
|
|
02000200,
|
|
10020000,
|
|
01000100,
|
|
20010000,
|
|
01000100,
|
|
10020000,
|
|
01000100,//100
|
|
|
|
#GOGOEND
|
|
03000300,
|
|
04000400,
|
|
#BPMCHANGE 155
|
|
#BARLINEOFF
|
|
0
|
|
#BPMCHANGE 150.1
|
|
#SCROLL 1.068
|
|
3,
|
|
#MEASURE 6/4
|
|
#BPMCHANGE 155
|
|
#BARLINEON
|
|
#SCROLL 1
|
|
4000000
|
|
#BPMCHANGE 156.5
|
|
#SCROLL 0.99
|
|
00000000030000000,
|
|
#BPMCHANGE 158
|
|
#SCROLL 0.98
|
|
4
|
|
#BPMCHANGE 161
|
|
#SCROLL 0.96
|
|
0
|
|
#BPMCHANGE 159
|
|
#SCROLL 0.97
|
|
3,
|
|
#BPMCHANGE 155
|
|
#SCROLL 1
|
|
#MEASURE 4/4
|
|
4,
|
|
#MEASURE 2/4
|
|
#BARLINEOFF
|
|
3,
|
|
#MEASURE 4/4
|
|
#BARLINEON
|
|
40
|
|
#BPMCHANGE 160
|
|
#SCROLL 0.97
|
|
3
|
|
#BPMCHANGE 154.6
|
|
#SCROLL 1
|
|
7,
|
|
#BARLINEOFF
|
|
,
|
|
#BPMCHANGE 155
|
|
#MEASURE 6/12
|
|
800000000
|
|
#SCROLL 1.5
|
|
000,
|
|
#MEASURE 4/4
|
|
#BARLINEON
|
|
3,
|
|
,
|
|
#END |