forked from ESE/ESE
420 lines
13 KiB
Plaintext
420 lines
13 KiB
Plaintext
//TJADB Project
|
|
TITLE:Onpu no Uta -PSP1 Version-
|
|
TITLEJA:音符のうた -PSP1 Version-
|
|
SUBTITLE:--Yuri Misumi feat. Miki Narahashi & Hisayoshi Suganuma
|
|
BPM:118
|
|
WAVE:Onpu no Uta -PSP1 Version-.ogg
|
|
OFFSET:-6.241
|
|
DEMOSTART:12.324
|
|
|
|
COURSE:Oni
|
|
LEVEL:5
|
|
BALLOON:16,13,20,13
|
|
SCOREINIT:980
|
|
SCOREDIFF:283
|
|
|
|
|
|
#START
|
|
|
|
|
|
000000000000000000000000000000000000000000000000,
|
|
000000001000100000002000200000002000000000000000,
|
|
100000002020200000002000000000000000000000000000,
|
|
#BPMCHANGE 119.02
|
|
100000001000200000002000000000002000000000002000,
|
|
#BPMCHANGE 116.59
|
|
100000001000200000001000200000001000200000000000,
|
|
#BPMCHANGE 118.41
|
|
100000001000000000001000100000002020200000002000,
|
|
#BPMCHANGE 119.79
|
|
100000001000000000001000100000000000200000000000,
|
|
#BPMCHANGE 117.13
|
|
100000001000200000002000000000002000000000002000,
|
|
100000001000200000001000200000001000200000000000,
|
|
#BPMCHANGE 120.02
|
|
100000001000000000001000100000002020200000002000,
|
|
#BPMCHANGE 117.34
|
|
100000000000100000001000100000002020200000001000,
|
|
500000000000000000000000000000000008000000000000,
|
|
100000001000200000002000100000001000200000002000,
|
|
#BPMCHANGE 118
|
|
100000001000200000002000100000001000200000002000,
|
|
100000001000200000002000100000001000200000000000,
|
|
300000000000000000000000000000002020200000002000,
|
|
100000000000200000001000100000002020200000002000,
|
|
100000000000200000001000100000002020200000002000,
|
|
#BPMCHANGE 118.61
|
|
100000000000200000001000100000002020200000002000,
|
|
#BPMCHANGE 117.54
|
|
100000000000000000000000100000000000000000000000,
|
|
#BPMCHANGE 117.93
|
|
100000000000100000002020100000002020100000002020,
|
|
100000000000100000000000100000002020200000002000,
|
|
#BPMCHANGE 118
|
|
100000000000100000001000100000000000000000000000,
|
|
100000000000100000000000100000000000000000000000,
|
|
200000000000100000002000200000001010100000001000,
|
|
000000001000100000002000200000000000100000001000,
|
|
#BPMCHANGE 120.24
|
|
200000001000100000002000200000001000100000000000,
|
|
#BPMCHANGE 117.27
|
|
200000000000200000002020200000000000100000001010,
|
|
#BPMCHANGE 118.54
|
|
200000002020200000002020200000000000100000001010,
|
|
#BPMCHANGE 116.81
|
|
200000001010200000001010200000000000100000001000,
|
|
#BPMCHANGE 118.42
|
|
500000000000000000000000000000000008000000000000,
|
|
#BPMCHANGE 117.59
|
|
100000002000000000002000100000002020200000002000,
|
|
#BPMCHANGE 119.56
|
|
100000002000000000002000100000002020200000002000,
|
|
#BPMCHANGE 115.69
|
|
700000000000000000000000000000000000000000800000,
|
|
#BPMCHANGE 119.75
|
|
300000000000100000001000300000000000200000002000,
|
|
#BPMCHANGE 117.83
|
|
400000000000200000002000400000002000400000001000,
|
|
#BPMCHANGE 118
|
|
300000002000400000001000300000002000400000001000,
|
|
300000001000300000001000300000000000000000000000,
|
|
900000000000000000000000000000000000000000800000,
|
|
000000000000000000000000000000000000000000000000,
|
|
#BPMCHANGE 118.63
|
|
900000000000000000000000000000000000000000000000,
|
|
#BPMCHANGE 117.54
|
|
000000000000800000000000000000000000000000000000,
|
|
#BPMCHANGE 117.22
|
|
000000000000000000000000000000000000000000000000,
|
|
100000000000000000001000000000002020200000000000,
|
|
#BPMCHANGE 118
|
|
100000000000200000001000100000000000200000000000,
|
|
100000000000200000001000100000002020200000002000,
|
|
100000001000200000001000200000000000000000000000,
|
|
#BPMCHANGE 119.45
|
|
000000000000000000000000000000000000000000000000,
|
|
|
|
#GOGOSTART
|
|
#BPMCHANGE 117.29
|
|
100000001000200000001000200000001000200000000000,
|
|
100000001000200000001000200000001010200000002000,
|
|
#BPMCHANGE 118
|
|
100000001000000000001000100000002020200000002000,
|
|
300000000000100000001000100000000000000000001000,
|
|
500000000000000000000000000000000008000000000000,
|
|
900000000000000000000000000000000000000000800000,
|
|
|
|
#GOGOEND
|
|
|
|
|
|
#END
|
|
|
|
|
|
COURSE:Hard
|
|
LEVEL:4
|
|
BALLOON:12,10,15,10
|
|
SCOREINIT:1010
|
|
SCOREDIFF:310
|
|
|
|
|
|
#START
|
|
|
|
|
|
000000000000000000000000000000000000000000000000,
|
|
000000001000100000002000200000002000000000000000,
|
|
100000002000200000002000000000000000000000000000,
|
|
#BPMCHANGE 119.02
|
|
100000001000200000000000100000001000200000000000,
|
|
#BPMCHANGE 116.59
|
|
100000001000200000001000200000001000200000000000,
|
|
#BPMCHANGE 118.41
|
|
100000001000100000001000100000000000000000000000,
|
|
#BPMCHANGE 119.79
|
|
100000001000100000000000100000000000200000000000,
|
|
#BPMCHANGE 117.13
|
|
100000001000200000000000100000001000200000000000,
|
|
100000001000200000001000200000001000200000000000,
|
|
#BPMCHANGE 120.02
|
|
100000001000100000001000100000000000200000000000,
|
|
#BPMCHANGE 117.34
|
|
000000000000100000001000100000000000000000000000,
|
|
500000000000000000000000000000000080000000000000,
|
|
100000000000200000001000100000000000200000000000,
|
|
#BPMCHANGE 118
|
|
100000000000200000001000100000000000200000000000,
|
|
100000000000200000001000100000000000200000000000,
|
|
300000000000000000000000000000002000200000000000,
|
|
100000000000200000001000100000000000200000000000,
|
|
100000000000200000001000100000000000200000000000,
|
|
#BPMCHANGE 118.61
|
|
100000000000200000001000100000000000200000000000,
|
|
#BPMCHANGE 117.54
|
|
100000000000000000000000100000000000000000000000,
|
|
#BPMCHANGE 117.93
|
|
100000000000100000002000100000002000100000002000,
|
|
100000000000100000000000100000002000200000002000,
|
|
#BPMCHANGE 118
|
|
100000000000100000001000100000000000000000000000,
|
|
100000000000100000000000100000000000000000000000,
|
|
200000000000100000002000200000000000100000000000,
|
|
200000000000100000002000200000000000100000000000,
|
|
#BPMCHANGE 120.24
|
|
200000000000100000002000200000000000100000000000,
|
|
#BPMCHANGE 117.27
|
|
200000000000200000000000200000000000100000001000,
|
|
#BPMCHANGE 118.54
|
|
200000000000200000000000200000000000100000001000,
|
|
#BPMCHANGE 116.81
|
|
200000000000200000000000200000000000100000000000,
|
|
#BPMCHANGE 118.42
|
|
500000000000000000000000000000000080000000000000,
|
|
#BPMCHANGE 117.59
|
|
100000000000200000001000100000002000200000000000,
|
|
#BPMCHANGE 119.56
|
|
100000000000200000001000100000000000200000000000,
|
|
#BPMCHANGE 115.69
|
|
700000000000000000000000000000000000008000000000,
|
|
#BPMCHANGE 119.75
|
|
300000000000300000000000300000000000300000000000,
|
|
#BPMCHANGE 117.83
|
|
400000000000400000000000400000000000400000000000,
|
|
#BPMCHANGE 118
|
|
300000000000400000000000300000000000400000000000,
|
|
300000000000300000000000300000000000000000000000,
|
|
900000000000000000000000000000000000008000000000,
|
|
000000000000000000000000000000000000000000000000,
|
|
#BPMCHANGE 118.63
|
|
900000000000000000000000000000000000000000000000,
|
|
#BPMCHANGE 117.54
|
|
000000000080000000000000000000000000000000000000,
|
|
#BPMCHANGE 117.22
|
|
000000000000000000000000000000000000000000000000,
|
|
100000000000200000001000100000000000200000000000,
|
|
#BPMCHANGE 118
|
|
100000000000200000001000100000002000200000000000,
|
|
100000000000200000001000100000002000200000000000,
|
|
100000001000200000001000200000000000000000000000,
|
|
#BPMCHANGE 119.45
|
|
000000000000000000000000000000000000000000000000,
|
|
|
|
#GOGOSTART
|
|
#BPMCHANGE 117.29
|
|
100000001000200000001000200000001000200000000000,
|
|
100000001000200000001000200000001000200000000000,
|
|
#BPMCHANGE 118
|
|
100000001000100000001000100000000000000000000000,
|
|
300000000000100000001000100000000000000000000000,
|
|
500000000000000000000000000000000080000000000000,
|
|
900000000000000000000000000000000000008000000000,
|
|
|
|
#GOGOEND
|
|
|
|
|
|
#END
|
|
|
|
|
|
COURSE:Normal
|
|
LEVEL:4
|
|
BALLOON:9,8,13,8
|
|
SCOREINIT:1160
|
|
SCOREDIFF:435
|
|
|
|
|
|
#START
|
|
|
|
|
|
000000000000000000000000000000000000000000000000,
|
|
100000000000000000000000100000001000000000000000,
|
|
100000000000100000001000000000000000000000000000,
|
|
#BPMCHANGE 119.02
|
|
100000000000000000000000100000001000000000000000,
|
|
#BPMCHANGE 116.59
|
|
100000000000000000000000100000001000000000000000,
|
|
#BPMCHANGE 118.41
|
|
100000001000100000000000100000000000000000000000,
|
|
#BPMCHANGE 119.79
|
|
100000000000000000000000100000000000000000000000,
|
|
#BPMCHANGE 117.13
|
|
100000000000000000000000100000001000000000000000,
|
|
100000000000000000000000100000001000000000000000,
|
|
#BPMCHANGE 120.02
|
|
100000001000100000000000100000000000000000000000,
|
|
#BPMCHANGE 117.34
|
|
000000000000100000001000100000000000000000000000,
|
|
500000000000000000000000000000000080000000000000,
|
|
100000000000000000001000100000000000200000000000,
|
|
#BPMCHANGE 118
|
|
100000000000000000001000100000000000200000000000,
|
|
100000000000000000001000100000000000200000000000,
|
|
300000000000000000000000000000002000200000000000,
|
|
100000000000000000001000100000000000200000000000,
|
|
100000000000000000001000100000000000200000000000,
|
|
#BPMCHANGE 118.61
|
|
100000000000100000000000100000000000000000000000,
|
|
#BPMCHANGE 117.54
|
|
100000000000000000000000100000000000000000000000,
|
|
#BPMCHANGE 117.93
|
|
100000000000200000000000200000000000200000000000,
|
|
100000000000100000000000100000000000000000000000,
|
|
#BPMCHANGE 118
|
|
100000000000100000001000100000000000000000000000,
|
|
100000000000100000000000100000000000000000000000,
|
|
200000000000000000002000200000000000000000000000,
|
|
200000000000000000002000200000000000000000000000,
|
|
#BPMCHANGE 120.24
|
|
200000000000000000002000200000000000000000000000,
|
|
#BPMCHANGE 117.27
|
|
200000000000200000000000200000000000100000000000,
|
|
#BPMCHANGE 118.54
|
|
200000000000200000000000200000000000100000000000,
|
|
#BPMCHANGE 116.81
|
|
200000000000200000000000200000000000000000000000,
|
|
#BPMCHANGE 118.42
|
|
500000000000000000000000000000000080000000000000,
|
|
#BPMCHANGE 117.59
|
|
100000000000100000001000000000000000200000000000,
|
|
#BPMCHANGE 119.56
|
|
100000000000100000001000000000000000200000000000,
|
|
#BPMCHANGE 115.69
|
|
700000000000000000000000000000000000008000000000,
|
|
#BPMCHANGE 119.75
|
|
300000000000000000000000300000000000000000000000,
|
|
#BPMCHANGE 117.83
|
|
400000000000000000000000400000000000000000000000,
|
|
#BPMCHANGE 118
|
|
300000000000000000000000400000000000000000000000,
|
|
300000000000300000000000300000000000000000000000,
|
|
900000000000000000000000000000000000008000000000,
|
|
000000000000000000000000000000000000000000000000,
|
|
#BPMCHANGE 118.63
|
|
900000000000000000000000000000000000000000000000,
|
|
#BPMCHANGE 117.54
|
|
000000000080000000000000000000000000000000000000,
|
|
#BPMCHANGE 117.22
|
|
000000000000000000000000000000000000000000000000,
|
|
100000000000000000001000100000000000200000000000,
|
|
#BPMCHANGE 118
|
|
100000000000000000001000100000000000200000000000,
|
|
100000000000200000001000100000000000200000000000,
|
|
100000000000100000000000100000000000000000000000,
|
|
#BPMCHANGE 119.45
|
|
000000000000000000000000000000000000000000000000,
|
|
|
|
#GOGOSTART
|
|
#BPMCHANGE 117.29
|
|
100000000000200000001000100000000000200000000000,
|
|
100000000000200000001000100000000000200000000000,
|
|
#BPMCHANGE 118
|
|
100000001000100000000000100000000000000000000000,
|
|
300000000000100000001000100000000000000000000000,
|
|
500000000000000000000000000000000080000000000000,
|
|
900000000000000000000000000000000000008000000000,
|
|
|
|
#GOGOEND
|
|
|
|
|
|
#END
|
|
|
|
|
|
COURSE:Easy
|
|
LEVEL:3
|
|
BALLOON:8,7,18,7
|
|
SCOREINIT:1150
|
|
SCOREDIFF:740
|
|
|
|
|
|
#START
|
|
|
|
|
|
000000000000000000000000000000000000000000000000,
|
|
100000000000000000000000100000000000000000000000,
|
|
100000000000100000000000000000000000000000000000,
|
|
#BPMCHANGE 119.02
|
|
100000000000000000000000000000000000000000000000,
|
|
#BPMCHANGE 116.59
|
|
100000000000000000000000100000000000000000000000,
|
|
#BPMCHANGE 118.41
|
|
100000000000100000000000100000000000000000000000,
|
|
#BPMCHANGE 119.79
|
|
100000000000000000000000000000000000000000000000,
|
|
#BPMCHANGE 117.13
|
|
100000000000000000000000000000000000000000000000,
|
|
100000000000000000000000100000000000000000000000,
|
|
#BPMCHANGE 120.02
|
|
100000000000100000000000100000000000000000000000,
|
|
#BPMCHANGE 117.34
|
|
100000000000100000000000100000000000000000000000,
|
|
500000000000000000000000000000000080000000000000,
|
|
100000000000000000000000100000000000000000000000,
|
|
#BPMCHANGE 118
|
|
100000000000000000000000100000000000000000000000,
|
|
100000000000000000000000100000000000000000000000,
|
|
100000000000000000000000000000000000000000000000,
|
|
100000000000000000000000000000000000000000000000,
|
|
100000000000000000000000100000000000000000000000,
|
|
#BPMCHANGE 118.61
|
|
100000000000000000000000000000000000000000000000,
|
|
#BPMCHANGE 117.54
|
|
100000000000000000000000100000000000000000000000,
|
|
#BPMCHANGE 117.93
|
|
100000000000000000000000000000000000000000000000,
|
|
100000000000100000000000100000000000000000000000,
|
|
#BPMCHANGE 118
|
|
100000000000100000000000100000000000000000000000,
|
|
000000000000000000000000000000000000000000000000,
|
|
200000000000000000000000200000000000000000000000,
|
|
200000000000000000000000200000000000000000000000,
|
|
#BPMCHANGE 120.24
|
|
200000000000000000000000200000000000000000000000,
|
|
#BPMCHANGE 117.27
|
|
200000000000200000000000200000000000000000000000,
|
|
#BPMCHANGE 118.54
|
|
200000000000200000000000200000000000000000000000,
|
|
#BPMCHANGE 116.81
|
|
200000000000200000000000200000000000000000000000,
|
|
#BPMCHANGE 118.42
|
|
500000000000000000000000000000000080000000000000,
|
|
#BPMCHANGE 117.59
|
|
100000000000000000000000100000000000000000000000,
|
|
#BPMCHANGE 119.56
|
|
100000000000000000000000100000000000000000000000,
|
|
#BPMCHANGE 115.69
|
|
700000000000000000000000000000000000008000000000,
|
|
#BPMCHANGE 119.75
|
|
300000000000000000000000300000000000000000000000,
|
|
#BPMCHANGE 117.83
|
|
400000000000000000000000400000000000000000000000,
|
|
#BPMCHANGE 118
|
|
300000000000000000000000400000000000000000000000,
|
|
300000000000300000000000300000000000000000000000,
|
|
900000000000000000000000000000000000008000000000,
|
|
000000000000000000000000000000000000000000000000,
|
|
#BPMCHANGE 118.63
|
|
900000000000000000000000000000000000000000000000,
|
|
#BPMCHANGE 117.54
|
|
000000000000000000000000000000000000000000000000,
|
|
#BPMCHANGE 117.22
|
|
080000000000000000000000000000000000000000000000,
|
|
000000000000000000000000000000000000000000000000,
|
|
#BPMCHANGE 118
|
|
100000000000000000000000100000000000000000000000,
|
|
100000000000000000000000100000000000000000000000,
|
|
100000000000100000000000100000000000000000000000,
|
|
#BPMCHANGE 119.45
|
|
200000000000000000000000000000000000000000000000,
|
|
#BPMCHANGE 117.29
|
|
#GOGOSTART
|
|
100000000000000000000000100000000000000000000000,
|
|
200000000000000000000000200000000000000000000000,
|
|
#BPMCHANGE 118
|
|
100000000000100000000000100000000000000000000000,
|
|
300000000000000000000000400000000000000000000000,
|
|
500000000000000000000000000000000080000000000000,
|
|
700000000000000000000000000000000000008000000000,
|
|
|
|
#GOGOEND
|
|
|
|
|
|
#END
|
|
|