forked from ESE/ESE
431 lines
5.8 KiB
Plaintext
431 lines
5.8 KiB
Plaintext
//TJADB Project
|
|
TITLE:Turquoise Tachometer
|
|
TITLEJA:Turquoise Tachometer
|
|
SUBTITLE:--AJURIKA
|
|
SUBTITLEJA:AJURIKA
|
|
BPM:164
|
|
WAVE:Turquoise Tachometer.ogg
|
|
OFFSET:-1.807
|
|
DEMOSTART:63.262
|
|
|
|
COURSE:Oni
|
|
LEVEL:9
|
|
BALLOON:13
|
|
SCOREINIT:390
|
|
SCOREDIFF:90
|
|
|
|
|
|
#START
|
|
|
|
|
|
1111201121201022,
|
|
1101202120002000,
|
|
#SCROLL 1.1
|
|
1111221200000122,
|
|
#SCROLL 1.2
|
|
1102101202101122,
|
|
#SCROLL 1.3
|
|
1111221200000122,
|
|
#SCROLL 1.4
|
|
1102101202102222,
|
|
#SCROLL 1.5
|
|
1111221200000122,
|
|
#SCROLL 1.6
|
|
1102101202101122,
|
|
#SCROLL 1.7
|
|
1122112202221122,
|
|
#SCROLL 0.8
|
|
1111222211221212,
|
|
#SCROLL 1
|
|
1002102012021010,
|
|
1020102010112022,
|
|
1002012020102222,
|
|
1020102100201212,
|
|
1002102012021010,
|
|
1020102010112022,
|
|
1122112202221122,
|
|
1010220200000000,
|
|
1022102010221010,
|
|
1022102010221020,
|
|
1022102010221010,
|
|
2002002000202020,
|
|
1022120210221010,
|
|
1022120210221020,
|
|
1022120210221010,
|
|
1011202211112222,
|
|
1022120212201010,
|
|
1022120212201020,
|
|
1022120212201010,
|
|
2002002000202020,
|
|
1020122012221010,
|
|
1020122012221020,
|
|
1020122012221010,
|
|
1012012012021222,
|
|
1022112210221212,
|
|
1022112210221222,
|
|
1022112210221212,
|
|
1020220202222020,
|
|
1022112210221212,
|
|
1022112210101020,
|
|
01120112,
|
|
03333340,//42
|
|
|
|
#GOGOSTART
|
|
1112021112021120,
|
|
1111212022221210,
|
|
1112102212121170,
|
|
0008,
|
|
1112021112021120,
|
|
1111212022221210,
|
|
1122102212121150,
|
|
000000000000000000000008000000200000200100200000,
|
|
1112021112021120,
|
|
1111212122221212,
|
|
1112102212121122,
|
|
1012012212112122,
|
|
1112021112021120,
|
|
1111212122221212,
|
|
1112102212121150,
|
|
000000000000000000000008000000100200100100202020,
|
|
100000101010200200000200000000000000000000000000,//59
|
|
|
|
#GOGOEND
|
|
1111221200000122,
|
|
1102101202101122,
|
|
1111221200000122,
|
|
1102101102102222,
|
|
1111221200000122,
|
|
1102101202101122,
|
|
1121121121001020,
|
|
1020102210201122,
|
|
#SCROLL 1.1
|
|
1022102212021012,
|
|
#SCROLL 1.2
|
|
1022102212112022,
|
|
#SCROLL 1.3
|
|
1022112210201220,
|
|
#SCROLL 1.4
|
|
1022102102201212,
|
|
#SCROLL 1.5
|
|
1022102212021012,
|
|
#SCROLL 1.6
|
|
1022102212112122,
|
|
#SCROLL 1.7
|
|
100100200200100100200500000000000000000008000000,
|
|
#SCROLL 0.8
|
|
1111221200000000,
|
|
|
|
|
|
#END
|
|
|
|
|
|
COURSE:Hard
|
|
LEVEL:8
|
|
BALLOON:12,12,11,12,15,10
|
|
SCOREINIT:480
|
|
SCOREDIFF:130
|
|
|
|
#START
|
|
1110101110100000,
|
|
1110101020002000,
|
|
#SCROLL 1.1
|
|
1110111100000000,
|
|
#SCROLL 1.2
|
|
1101102202202000,
|
|
#SCROLL 1.3
|
|
1110111100000000,
|
|
#SCROLL 1.4
|
|
1102201102202000,
|
|
#SCROLL 1.5
|
|
1110111100000000,
|
|
#SCROLL 1.6
|
|
1101102202202000,
|
|
#SCROLL 1.7
|
|
1010101101101000,
|
|
#SCROLL 0.8
|
|
7008,
|
|
#SCROLL 1
|
|
1002001002001020,
|
|
01120000,
|
|
2002002000202000,
|
|
7008,
|
|
1002001002001020,
|
|
01120000,
|
|
1010101101101000,
|
|
1010220200000000,
|
|
10121011,
|
|
10121012,
|
|
10121011,
|
|
2002002000202000,
|
|
10121011,
|
|
10121012,
|
|
10121011,
|
|
07000080,
|
|
12121211,
|
|
12121210,
|
|
12121211,
|
|
2002002000202000,
|
|
12121211,
|
|
12121210,
|
|
12121211,
|
|
7008,
|
|
1011100010111000,
|
|
1011100010111000,
|
|
1011100010111070,
|
|
0008,
|
|
1011101010111010,
|
|
1011101000101020,
|
|
01120112,
|
|
03333340,//42
|
|
|
|
#GOGOSTART
|
|
1110101011101000,
|
|
2220202022202000,
|
|
1110101011101070,
|
|
08,
|
|
1110101022202000,
|
|
1110101022202000,
|
|
1110101022202050,
|
|
000000000000000000000008000000000000000000000000,
|
|
1110101011101010,
|
|
1110101011101010,
|
|
1110101011101050,
|
|
000000000000000000000008000000000000000000000000,
|
|
1110101022202020,
|
|
1110101022202020,
|
|
1110101022202050,
|
|
000000000000000000000000000000000000000000000008,
|
|
0000220200000000,//59
|
|
|
|
#GOGOEND
|
|
1110111100000000,
|
|
1101102202202000,
|
|
1110111100000000,
|
|
1102201102202000,
|
|
1110111100000000,
|
|
1101102202202000,
|
|
1001001002002000,
|
|
12121212,
|
|
#SCROLL 1.1
|
|
1002001002001020,
|
|
#SCROLL 1.2
|
|
01120000,
|
|
#SCROLL 1.3
|
|
2002002000202000,
|
|
#SCROLL 1.4
|
|
2202202202202000,
|
|
#SCROLL 1.5
|
|
3004003004003040,
|
|
#SCROLL 1.6
|
|
03340000,
|
|
#SCROLL 1.7
|
|
1110111100000000,
|
|
#SCROLL 0.8
|
|
1010111100000000,
|
|
#END
|
|
|
|
COURSE:Normal
|
|
LEVEL:6
|
|
BALLOON:8,13,8,9,10,9,7,10,6
|
|
|
|
#START
|
|
30030040,
|
|
1122,
|
|
#SCROLL 1.1
|
|
10101110,
|
|
#SCROLL 1.2
|
|
11101010,
|
|
#SCROLL 1.3
|
|
10101110,
|
|
#SCROLL 1.4
|
|
11101020,
|
|
#SCROLL 1.5
|
|
10101110,
|
|
#SCROLL 1.6
|
|
11101010,
|
|
#SCROLL 1.7
|
|
10102220,
|
|
#SCROLL 0.8
|
|
7008,
|
|
#SCROLL 1
|
|
30030030,
|
|
01120000,
|
|
7,
|
|
08,
|
|
30030030,
|
|
01120000,
|
|
10102220,
|
|
500000000000000000000008000000000000000000000000,
|
|
10101011,
|
|
1111,
|
|
10101011,
|
|
500000000000000000000000000000000008000000000000,
|
|
10101011,
|
|
1111,
|
|
10101011,
|
|
07000080,
|
|
10101011,
|
|
10101011,
|
|
10101011,
|
|
500000000000000000000000000000000008000000000000,
|
|
10101011,
|
|
10101011,
|
|
10101111,
|
|
7008,
|
|
0101,
|
|
0101,
|
|
00101017,
|
|
0008,
|
|
0101,
|
|
00100111,
|
|
01110700,
|
|
0084,//42
|
|
|
|
#GOGOSTART
|
|
11101110,
|
|
22202220,
|
|
11101117,
|
|
08,
|
|
11101110,
|
|
22202220,
|
|
11101115,
|
|
000000000000000000000008000000000000000000000000,
|
|
11102220,
|
|
11102220,
|
|
11102225,
|
|
000000000000000000000008000000000000000000000000,
|
|
11111010,
|
|
22222020,
|
|
11111015,
|
|
,
|
|
000000000000000000000008000000000000000000000000,//59
|
|
|
|
#GOGOEND
|
|
10101110,
|
|
11101010,
|
|
10101110,
|
|
30030040,
|
|
10101110,
|
|
11101010,
|
|
1001001001001000,
|
|
500000000000000000000000000000000000000008000000,
|
|
#SCROLL 1.1
|
|
30030030,
|
|
#SCROLL 1.2
|
|
01120000,
|
|
#SCROLL 1.3
|
|
9009,
|
|
#SCROLL 1.4
|
|
8,
|
|
#SCROLL 1.5
|
|
30030030,
|
|
#SCROLL 1.6
|
|
01120000,
|
|
#SCROLL 1.7
|
|
10102220,
|
|
#SCROLL 0.8
|
|
9098,
|
|
#END
|
|
|
|
COURSE:Easy
|
|
LEVEL:4
|
|
BALLOON:10,6,11,6,7,8,7,6,7,8,5
|
|
|
|
#START
|
|
7,
|
|
84,
|
|
#SCROLL 1.1
|
|
1110,
|
|
#SCROLL 1.2
|
|
1112,
|
|
#SCROLL 1.3
|
|
1110,
|
|
#SCROLL 1.4
|
|
1112,
|
|
#SCROLL 1.5
|
|
1110,
|
|
#SCROLL 1.6
|
|
1112,
|
|
#SCROLL 1.7
|
|
1120,
|
|
#SCROLL 0.8
|
|
7008,
|
|
#SCROLL 1
|
|
30030030,
|
|
01110000,
|
|
7,
|
|
8,
|
|
30030030,
|
|
01110000,
|
|
1120,
|
|
500000000000000000000008000000000000000000000000,
|
|
11,
|
|
1011,
|
|
11,
|
|
500000000000000000000000000008000000000000000000,
|
|
11,
|
|
1011,
|
|
11,
|
|
17000080,
|
|
1011,
|
|
1011,
|
|
1011,
|
|
500000000000000000000000000008000000000000000000,
|
|
1011,
|
|
1011,
|
|
1011,
|
|
7008,
|
|
0101,
|
|
0101,
|
|
00100017,
|
|
0008,
|
|
0101,
|
|
000000000000100000000000000000500000000008000000,
|
|
000000500000000008000000000000700000000000000000,
|
|
0084,//42
|
|
|
|
#GOGOSTART
|
|
1110,
|
|
2220,
|
|
10101017,
|
|
0008,
|
|
1110,
|
|
2220,
|
|
10101015,
|
|
000000000000000000000008000000000000000000000000,
|
|
1111,
|
|
2222,
|
|
10101015,
|
|
000000000000000000000008000000000000000000000000,
|
|
1111,
|
|
2222,
|
|
10101015,
|
|
,
|
|
000000000000000000000008000000000000000000000000,//59
|
|
|
|
#GOGOEND
|
|
1110,
|
|
1112,
|
|
1110,
|
|
30030030,
|
|
1110,
|
|
1112,
|
|
7008,
|
|
500000000000000000000000000008000000000000000000,
|
|
#SCROLL 1.1
|
|
30030030,
|
|
#SCROLL 1.2
|
|
01110000,
|
|
#SCROLL 1.3
|
|
9009,
|
|
#SCROLL 1.4
|
|
8,
|
|
#SCROLL 1.5
|
|
30030030,
|
|
#SCROLL 1.6
|
|
01110000,
|
|
#SCROLL 1.7
|
|
1120,
|
|
#SCROLL 0.8
|
|
9098,
|
|
#END |