Files
ESE-ja-fix/01 Pop/Ai no Katachi/Ai no Katachi.tja
T
2023-06-15 19:15:39 -05:00

191 lines
2.2 KiB
Plaintext

//TJADB Project
TITLE:Ai no Katachi
TITLEJA:アイノカタチ feat.HIDE(GReeeeN)
SUBTITLE:--MISIA feat. Hide (GReeeeN)
BPM:88
WAVE:Ai no Katachi.ogg
OFFSET:-2.803
DEMOSTART:56.751
COURSE:Oni
LEVEL:4
SCOREINIT:1350
SCOREDIFF:380
#START
2222,
20022222,
00220022,
0002,
1000201010002011,
1000201010002011,
10211021,
2000201020222000,
1000201010002011,
1000201010002011,
10211021,
2000201020222000,
#BPMCHANGE 89
1000101020001110,
1000101020001110,
1000101020001110,
1000100220001110,
1000101020001110,
1000101020001110,
10112203,
3000300030003011,
#GOGOSTART
#BPMCHANGE 90
1000201110222010,
500000000008000000200000200000000000000000100100,
1000201110222010,
500000000008000000200000200000000000200000000000,
3000201011102011,
1000201011102011,
1020201110202011,
1021021010022000,
#GOGOEND
500000000000000000000000000000000000000008000000,
#END
COURSE:Hard
LEVEL:3
SCOREINIT:1750
SCOREDIFF:500
#START
22,
2,
00220022,
,
10011011,
10011011,
10011011,
20202220,
10011011,
10011011,
10011011,
2224,
#BPMCHANGE 89
10112010,
10112001,
10112010,
10102011,
10112001,
10112001,
10112203,
3000300030003011,//20
#BPMCHANGE 90
#GOGOSTART
1212,
500000000008000000200000200000000000000000100100,
1212,
500000000008000000200000200000000000200000000000,
30011011,
2000200020000011,
1000001110000011,
10011020,//28
#GOGOEND
500000000000000000000000000000000000000008000000,
,
,
#END
COURSE:Normal
LEVEL:2
#START
22,
2,
0202,
,
1011,
1011,
1011,
2220,
1011,
1011,
1011,
2220,
#BPMCHANGE 89
12,
1120,
12,
1120,
12,
1120,
1,
3333,//20
#BPMCHANGE 90
#GOGOSTART
3111,
500000000008000000000000200000000000000000000000,
3111,
500000000008000000000000200000000000200000000000,
3011,
2220,
33,
3011,//28
#GOGOEND
500000000000000000000000000000000000000008000000,
,
,
#END
COURSE:Easy
LEVEL:1
#START
2,
2,
0202,
,
11,
11,
11,
1110,
11,
11,
11,
1110,
#BPMCHANGE 89
12,
12,
1,
1110,
12,
12,
1,
3333,//20
#BPMCHANGE 90
#GOGOSTART
3011,
12,
3011,
12,
3011,
12,
33,
3011,//28
#GOGOEND
500000000000000000000000000000000000000008000000,
,
,
#END