Files
ESE-ja-fix/01 Pop/Ambivalent/Ambivalent.tja
T
2023-06-15 19:15:39 -05:00

313 lines
3.6 KiB
Plaintext

//TJADB Project
TITLE:Ambivalent
TITLEJA:アンビバレント
SUBTITLE:--Sakurazaka46/Speed Lottery
BPM:130
WAVE:Ambivalent.ogg
OFFSET:-2.930
DEMOSTART:15.739
COURSE:Oni
LEVEL:7
SCOREINIT:700
SCOREDIFF:203
#START
,
,
,
,
,
,
3,
#GOGOSTART
1111201111012000,
1111201011112010,
1111201011112010,
100000200000200000500000000000000008000000000000,
1111201111012000,
1111201011112010,
1111201011120010,
100000200000200000500000000000000008000000000000,
3022203000104000,
3022203000104000,
1022201010222010,
100000200200200000500000000000000008000000000000,
3022203000104000,
3022203000104000,
1110201111102011,
100000200100000200500000000000000008000000000000,
#GOGOEND
1000201020112000,
1110201020112000,
1000201020112000,
1110201020112000,
1210201200102000,
1210201200102000,
1210201200102000,
1002002010002222,
10212012,
0020100010222010,
10212021,
0010200010222010,
10212021,
0010200010222010,
01211121,
0010201021121120,
,
#GOGOSTART
1110111011112000,
1110111120112110,
1111201011112010,
100000200000200000500000000000000008000000000000,
1110111011112000,
1110111120112110,
1111201011112010,
100000200000200000500000000000000008000000000000,
3022203000104000,
3022203000104000,
1022201010222010,
100000200100000200500000000000000008000000000000,
3022203000104000,
3022203000104000,
1110201111102011,
100000200100000200500000000000000000000000000008,
#GOGOEND
#END
COURSE:Hard
LEVEL:4
BALLOON:30
SCOREINIT:960
SCOREDIFF:290
#START
,
,
,
,
,
,
3,//7
#GOGOSTART
1110100010002000,
1110100010002000,
1110100010002000,
10220000,
1110100010002000,
1110100010002000,
1110100010002000,
10220000,
30030040,
30030040,
5,
000000000000000000000008000000000000000000000000,
30030040,
30030040,
6,
000000000000000000000008000000000000000000000000,//23
#GOGOEND
10012000,
11102000,
10012000,
11102000,
11100020,
11102000,
11100020,
1001001020000000,
10012011,
01102000,
10012011,
01102000,
10012011,
01102009,
,
09,
8,//40
#GOGOSTART
1110100010002000,
1110100010002000,
1110100010002000,
10220000,
1110100010002000,
1110100010002000,
1110100010002000,
10220000,
30030040,
30030040,
5,
000000000000000000000008000000000000000000000000,
30030040,
30030040,
6,
000000000000000000000000000000000000000000000008,//56
#GOGOEND
,
,
,
#END
COURSE:Normal
LEVEL:2
BALLOON:23
#START
,
,
,
,
,
,
3,//7
#GOGOSTART
1110,
1110,
1110,
2,
1110,
1110,
1110,
2,
30030000,
30030000,
5,
000000000000000000000008000000000000000000000000,
30030000,
30030000,
6,
000000000000000000000008000000000000000000000000,//23
#GOGOEND
12,
1120,
12,
1120,
1100,
1120,
1100,
12,
10002001,
02,
10002001,
02,
10002001,
00002009,
,
09,
8,//40
#GOGOSTART
1110,
1110,
1110,
2,
1110,
1110,
1110,
2,
30030000,
30030000,
5,
000000000000000000000008000000000000000000000000,
30030000,
30030000,
6,
000000000000000000000000000000000000000000000008,//56
#GOGOEND
,
,
,
#END
COURSE:Easy
LEVEL:2
BALLOON:15
#START
,
,
,
,
,
,
3,//7
#GOGOSTART
11,
1,
11,
1,
11,
1,
11,
1,
30030000,
30030000,
5,
000000000000000000000008000000000000000000000000,
30030000,
30030000,
6,
000000000000000000000008000000000000000000000000,//23
#GOGOEND
12,
1,
12,
1,
1100,
12,
1100,
12,
10000001,
,
10000001,
,
10000001,
00000009,
,
09,
8,//40
#GOGOSTART
11,
1,
11,
2,
11,
1,
11,
2,
30030000,
30030000,
5,
000000000000000000000008000000000000000000000000,
30030000,
30030000,
6,
000000000000000000000000000000000000000000000008,//56
#GOGOEND
,
,
,
#END