Files
ESE-ja-fix/01 Pop/Anata to/Anata to.tja
T
2023-06-15 19:15:39 -05:00

104 lines
2.4 KiB
Plaintext
Raw Blame History

This file contains ambiguous Unicode characters
This file contains Unicode characters that might be confused with other characters. If you think that this is intentional, you can safely ignore this warning. Use the Escape button to reveal them.
//TJADB Project
TITLE:Anata to
TITLEJA:あなたと
SUBTITLE:--Ayaka × Kobukuro/CUBE LOVES MUSIC
SUBTITLEJA:DREAMS COME TRUE/「まんぷく」より
BPM:72
WAVE:Anata to.ogg
OFFSET:-3.543
DEMOSTART:73.543
COURSE:Oni
LEVEL:5
SCOREINIT:1110
SCOREDIFF:300
#START
100000000000000000000000200000000000200020001000,
100000000000000000200200200000200000100000200000,
100000000000200000100100100000000000200000100100,
100000200000100000200000100000000000200000100100,
100000000000200000100100100000000000100000100100,
100000000000200000000100100000100100200100000000,
100000000000200000000000100000000000100000100100,
100000000000200000000100100000100100200000100000,
100000000000000000000000200000000100100000100200,
100100000000200000000100100000100100200000100000,
100000000100200100100000100000000000000000000100,
100000100100200000100000100000000100200100100000,
100000000000200000000000100000000000000000100100,
100000000100200000100000100000000100200000100000,
100000000000000000000000200000000000100000100100,
100000000100200000100000100000000100200000100000,
100000000000200000000000100000100100100000000000,
100000000100200000100100000100200100100000200000,
100000000100200000100100000100200100100000200000,
100000000100200000100100000100200100100000200000,
300000400000300000400000000000000100100200000000,
#GOGOSTART
100000100100200000200100100000100100200000200100,
100000100100200000200100100000000000000000100100,
200100200100200000100200100100200000000000100100,
100000000000200000100100100000200000100100200000,
100000100100200000200100100000100100200000100000,
300000400000300000400000000000000000200020001000,
100000100100200000000000100000100000200100100000,
100000100100200000100100100000000000000000000000,
#GOGOEND
#END
COURSE:Hard
LEVEL:5
SCOREINIT:1320
SCOREDIFF:390
#START
100000200111,
10002011,
10002011,
10222011,
1000000000001011,
1000200110101000,
1000000020001011,
1000200110101000,
1000000020001011,
10201121,
1001101020000000,
1010201010011010,
1000200010000011,
1000200010110110,
1000000020001011,
1000200010110110,
12,
1001201101100000,
1001201101100000,
1001201100000000,
33340000,
#GOGOSTART
1011201010112000,
1011201010000010,
1011201010200010,
500000000000000000000008000000100000200000200000,
1011201010112020,
100000200000200000100000000000000000100010001000,
1000000030301110,
1210,
#GOGOEND
#END