Files
ESE-ja-fix/01 Pop/Ashita ga Aru sa/Ashita ga Aru sa.tja
T
2023-06-15 19:15:39 -05:00

197 lines
7.8 KiB
Plaintext
Raw Blame History

This file contains ambiguous Unicode characters
This file contains Unicode characters that might be confused with other characters. If you think that this is intentional, you can safely ignore this warning. Use the Escape button to reveal them.
//TJADB Project
TITLE:Ashita ga Aru sa
TITLEJA:明日があるさ
SUBTITLE:--Re: Japan/GEORGIA
BPM:99
WAVE:Ashita ga Aru sa.ogg
OFFSET:-2.765
DEMOSTART:53.371
COURSE:Oni
LEVEL:6
#START
100000200000100000200000100000100100000000200000,
100000000000200000000000100000100000000000200000,
100000100000000000200000100000000000000000100000,
100000000000200000000000100000100000000000200000,
100000100000000000200000100000000000000000100000,
100000200000100000100000100000200000000000100000,
100000200000100000100000100000200000000000100000,
100000200000100000100000100000200000100000100000,
500000000000000000000000000008000000000000100000,
100000100100000000200000100000100000000000100000,
100000100100000000200000100000100000000000100000,
100000100100000000200000100000100000100000100000,
500000000000000000000000000008000000000000100000,
100000100000200000000000100000200000100000100000,
100000200000100000100000100000100100000000100000,
100000100000200000000000100000200000100000100000,
100000200000100000100000100000100100000000100000,
100000200000200000200000100000100000000000100000,
100000200000200000200000100000100000000000100000,
100000200000200000200000100000200000100000200000,
500000000000000000000000000008000000000000100000,
100000100100000000200000100000100100000100100000,
100000100100000000200000100000100100000100100000,
100000100100000000200000100000100100000100100000,
500000000000000000000000000008000000000000100000,
100000200000100000200000100000100000100000200000,
100000100000100000200000100000000000000000100000,
100000200000100000200000100000100000100000200000,
100000100000100000200000100000000000000000100000,
100000200200000000200000100000100000000000100000,
100000200200000000200000100000100000000000100000,
100000200200000000200000100000100000100000200000,
500000000000000000000000000008000000000000100000,
100000200200000000200000100000100000000000100000,
100000200200000000200000100000100000000000100000,
100000200200000000200000100000100000100000200000,
500000000000000000000000000008000000000000000000,
300000000000000000000000000000000000000000100000,
100000200200000000200000100100000100100000200000,
100100000100100000200000100000000000000000100000,
100000200200000000200000100100000100100000200000,
100100000100100000200000100000000000000000100000,
100000200200000000200000100000100000000000100000,
100000200200000000200000100000100000000000100000,
100000200200000000200000100000200000100000200000,
500000000000000000000000000800000000000000100000,
100000200200000000200000100000100000000000100000,
100000200200000000200000100000100000000000100000,
100000200200000000200000100000200200000000200000,
500000000000000000000000000008000000000000000000,
#END
COURSE:Hard
LEVEL:4
#START
100000200000100000200000100000100100000000200000,
100000000000200000000000100000100000000000200000,
100000100000000000200000100000000000000000100000,
100000000000200000000000100000100000000000200000,
100000100000000000200000100000000000000000100000,
100000200000100000100000100000200000000000100000,
100000200000100000100000100000200000000000100000,
100000200000100000100000100000200000100000100000,
500000000000000000000000000008000000000000100000,
100000100100000000200000100000100000000000100000,
100000100100000000200000100000100000000000100000,
100000100100000000200000100000100000100000100000,
500000000000000000000000000008000000000000100000,
100000100000200000000000100000200000100000100000,
100000200000100000100000100000100100000000100000,
100000100000200000000000100000200000100000100000,
100000200000100000100000100000100100000000100000,
100000200000200000200000100000100000000000100000,
100000200000200000200000100000100000000000100000,
100000200000200000200000100000200000100000200000,
500000000000000000000000000008000000000000100000,
100000100100000000200000100000100100000100100000,
100000100100000000200000100000100100000100100000,
100000100100000000200000100000100100000100100000,
500000000000000000000000000008000000000000100000,
100000200000100000200000100000100000100000200000,
100000100000100000200000100000000000000000100000,
100000200000100000200000100000100000100000200000,
100000100000100000200000100000000000000000100000,
100000200200000000200000100000100000000000100000,
100000200200000000200000100000100000000000100000,
100000200200000000200000100000100000100000200000,
500000000000000000000000000008000000000000100000,
100000200200000000200000100000100000000000100000,
100000200200000000200000100000100000000000100000,
100000200200000000200000100000100000100000200000,
500000000000000000000000000008000000000000000000,
300000000000000000000000000000000000000000100000,
100000200200000000200000100100000100100000200000,
100100000100100000200000100000000000000000100000,
100000200200000000200000100100000100100000200000,
100100000100100000200000100000000000000000100000,
100000200200000000200000100000100000000000100000,
100000200200000000200000100000100000000000100000,
100000200200000000200000100000200000100000200000,
500000000000000000000000000800000000000000100000,
100000200200000000200000100000100000000000100000,
100000200200000000200000100000100000000000100000,
100000200200000000200000100000200200000000200000,
500000000000000000000000000008000000000000000000,
#END
COURSE:Normal
LEVEL:3
SCOREINIT:820
SCOREDIFF:210
#START
100000000000100000000000100000100000000000100000,
100000000000000000000000100000100000000000000000,
100000100000000000000000100000000000000000100000,
100000000000000000000000100000100000000000000000,
100000100000000000000000100000000000000000100000,
100000000000100000000000100000100000000000100000,
100000000000100000000000100000100000000000100000,
100000000000100000000000100000000000100000000000,
500000000000000000000008000000000000000000100000,
100000000000200000000000100000100000000000100000,
100000000000200000000000100000100000000000100000,
100000000000200000000000100000000000100000000000,
500000000000000000000008000000000000000000100000,
100000000000200000000000100000100000000000000000,
100000100000000000100000100000000000000000100000,
100000000000200000000000100000100000000000000000,
100000100000000000100000100000000000000000100000,
100000000000100000000000100000100000000000100000,
100000000000100000000000100000100000000000100000,
100000000000100000000000100000000000100000000000,
500000000000000000000000000008000000000000100000,
100000000000200000000000100000100000000000100000,
100000000000200000000000100000100000000000100000,
100000000000200000000000100000000000100000000000,
500000000000000000000000000008000000000000100000,
100000100000200000000000100000100000000000200000,
100000100000100000100000200000000000000000100000,
100000100000200000000000100000100000000000200000,
100000100000100000100000200000000000000000100000,
100000000000100000000000100000100000000000100000,
100000000000100000000000100000100000000000100000,
100000100000200000000000100000100000100000200000,
500000000000000000000000000008000000000000100000,
100000000000200000000000100000100000000000100000,
100000000000200000000000100000100000000000100000,
100000000000200000000000100000100000100000200000,
500000000000000000000000000008000000000000000000,
300000000000000000000000000000000000000000100000,
100000000000100000200000100000100000000000200000,
100000100000000000200000100000000000000000100000,
100000000000100000200000100000100000000000200000,
100000100000000000200000100000000000000000100000,
100000200000100000200000100000100000000000100000,
100000200000100000200000100000100000000000100000,
100000200000100000200000100000100000100000100000,
500000000000000000000000000008000000000000100000,
100000200200000000200000100000100000000000100000,
100000200200000000200000100000100000000000100000,
100000200200000000200000100000200000100000100000,
500000000000000000000000000008000000000000000000,
#END