Files
ESE-ja-fix/01 Pop/CANDY CANDY/CANDY CANDY.tja
T
2023-01-17 00:45:18 -05:00

280 lines
10 KiB
Plaintext

//TJADB Project
TITLE:CANDY CANDY
TITLEJA:CANDY CANDY
SUBTITLE:--Kyary Pamyu Pamyu
SUBTITLEJA:きゃりーぱみゅぱみゅ
BPM:130
WAVE:CANDY CANDY.ogg
OFFSET:-2.207
DEMOSTART:61.264
COURSE:Oni
LEVEL:7
BALLOON:4,15
SCOREINIT:820
SCOREDIFF:190
#START
200000000000000000000000000000000000000000000000,
200000000000000000000000000000000000000000000000,
200000000000000000000000000000000000000000000000,
200000000000000000000000000000000000000000000000,
200000000000000000000000200000000000000000000000,
200000000000000000000000200000000000000000000000,
#BPMCHANGE 130.22
200200200000200200200000200200200000200200200000,
#BPMCHANGE 130
300000000000400000000000300000300000300000100100,
100000100000100000200200200000200000000000100100,
100000100000100000200200200000200000000000100100,
100000100000100000200200200000200000000000200200,
200000200000200000100100100000100000000000100100,
100000100000100000100100200000200000000000100100,
100000100000100000100100200000200000000000100100,
100000100000100000100100200000100000000000200200,
200000100000100000100100200000200000200000100000,
100000000000100000100100100000000000100000100100,
200000100100200000100000200000100000200000000000,
100000000000100000100100100000000000100000100100,
200000200200200000200000100000100100200000000000,
100000000000100000100100100000000000100000100100,
200000100100200000100000200000100000200000000000,
100000000000100000100100100000000000100000100100,
200000200200200000200000200000100100200000000000,
100000000000100000100100200000000000100000100100,
200000100100200000100000200000100000200000000000,
200000000000100000200200200000000000100000100100,
200000200200200000200000700000000000800000000000,
100000000000100000100100200000000000100000100100,
200000100100200000100000200000200200200000000000,
300000000000300000000000400000000000400000000000,
700000000000000000000000000000000000800000000000,
#GOGOSTART
100000100100200000100100100000100100200000000000,
100000100100200000100100200000100100200000000000,
200200200000100100100000200200200000100000000000,
300000000000400000000000300000000000000000000000,
100000100100200000100100100000100100200000000000,
100100200200100100200000100100100000200000000000,
200200200000100000000000200200200000500000000080,
000000300000300000300000400000400000400000000000,
100000100100200000100100100000100100200000100100,
200000200200200000200200100000100100200000000000,
200200200000100100100000200200200000100000000000,
300000000000400000000000300000000000000000000000,
100000100100200000200200100000100100200000100000,
100100200200100100200000200000100100200000000000,
300000000000400000000000300000000000600000000000,
000000000008000000000000300000300000300000000000,
#GOGOEND
#END
COURSE:Hard
LEVEL:6
BALLOON:10
SCOREINIT:820
SCOREDIFF:220
#START
200000000000000000000000000000000000000000000000,
000000000000000000000000000000000000000000000000,
200000000000000000000000000000000000000000000000,
000000000000000000000000000000000000000000000000,
200000000000000000000000200000000000000000000000,
200000000000000000000000200000000000000000000000,
#BPMCHANGE 130.22
200000000000200000000000200000000000200000000000,
#BPMCHANGE 130
300000000000400000000000300000300000300000100100,
100000100000000000200200200000200000000000100100,
100000100000000000200200200000200000000000100100,
100000100000000000200200200000200000000000100000,
500000000000000000000000000800000000000000100100,
200000100000000000200200100000200000000000100100,
200000100000000000200200100000200000000000100100,
200000100000000000200200100000200000000000100100,
100000100000100000100100100000100000100000100000,
100000000000000000100000100000000000000000100000,
100000100100100000100000100000100000100000000000,
200000000000000000200000200000000000000000200000,
200000200200200000200000200000000000000000000000,
100000000000000000100000100000000000000000100000,
100000100100100000100000100000100000100000000000,
200000000000000000200000200000000000000000200000,
200000200200200000200000200000000000000000000000,
100000000000000000100000200000000000000000100000,
200000100100200000100000200000100000200000000000,
200000000000000000200200200000000000000000200000,
200000200200200000200000200000000000000000000000,
100000000000000000100000200000000000000000100000,
200000100100200000100000200000100000200000000000,
300000000000300000000000400000000000400000000000,
700000000000000000000000000000000800000000000000,
#GOGOSTART
100000100100100000000000100000100100100000000000,
100000100000200000200000100000000000200000000000,
200200200000100000000000200200200000100000000000,
300000000000400000000000300000000000000000000000,
100000100100100000000000100000100100100000000000,
100000200000100000200000100000000000200000000000,
200200200000100000000000200200200000500000000800,
000000300000300000300000300000000000400000000000,
100000100100200000000000100000100100200000000000,
100000100000200000200000100000000000200000000000,
200200200000100000000000200200200000100000000000,
300000000000400000000000300000000000000000000000,
100000100100200000000000100000100100200000000000,
100000100000200000200000100000000000200000000000,
300000000000400000000000300000000000600000000000,
000000000800000000000000300000300000300000000000,
#GOGOEND
#END
COURSE:Normal
LEVEL:4
BALLOON:8,8,14
SCOREINIT:1040
SCOREDIFF:280
#START
000000000000000000000000000000000000000000000000,
000000000000000000000000000000000000000000000000,
200000000000000000000000000000000000000000000000,
200000000000000000000000000000000000000000000000,
200000000000000000000000200000000000000000000000,
200000000000000000000000200000000000000000000000,
#BPMCHANGE 130.22
200000000000200000000000200000000000200000000000,
#BPMCHANGE 130
600000000000000000800000000000000000000000000000,
100000000000000000100000100000100000000000000000,
100000000000000000100000100000100000000000000000,
100000000000000000100000100000100000000000000000,
500000000000000000000000800000000000000000000000,
200000000000000000200000200000200000000000000000,
200000000000000000200000200000200000000000000000,
200000000000000000200000200000200000000000000000,
500000000000000000000000000000800000000000000000,
100000000000000000000000100000000000000000100000,
100000000000100000000000100000000000100000000000,
200000000000000000200000200000000000000000200000,
200000000000200000000000200000000000000000000000,
100000000000000000100000100000000000000000100000,
100000000000100000000000100000000000100000000000,
200000000000000000200000200000000000000000200000,
200000000000200000000000200000000000000000000000,
100000000000000000100000100000000000000000100000,
100000000000100000000000100000000000200000000000,
200000000000000000200000200000000000000000200000,
200000000000200000000000100000000000000000000000,
100000000000000000100000100000000000000000100000,
100000000000100000000000100000000000200000000000,
300000000000300000000000400000000000400000000000,
700000000000000000000000000000800000000000000000,
#GOGOSTART
100000000000200000000000100000000000200000000000,
100000100000100000000000200000000000200000000000,
100000000000200000000000100000000000200000000000,
300000000000300000000000300000000000000000000000,
100000000000200000000000100000000000200000000000,
100000100000100000000000100000000000100000000000,
200000000000100000000000200000000000100000000000,
700000000000000000000000000000800000000000000000,
100000000000200000000000100000000000200000000000,
100000100000100000000000200000000000200000000000,
200000000000100000000000200000000000100000000000,
300000000000400000000000300000000000000000000000,
100000000000200000000000100000000000200000000000,
100000100000100000000000200000000000200000000000,
400000000000300000000000400000000000700000000000,
000000000000000000000000000000800000000000000000,
#GOGOEND
#END
COURSE:Easy
LEVEL:3
BALLOON:6,6,12
SCOREINIT:1000
SCOREDIFF:350
#START
000000000000000000000000000000000000000000000000,
000000000000000000000000000000000000000000000000,
200000000000000000000000000000000000000000000000,
200000000000000000000000000000000000000000000000,
200000000000000000000000000000000000000000000000,
200000000000000000000000000000000000000000000000,
#BPMCHANGE 130.22
200000000000200000000000200000000000200000000000,
#BPMCHANGE 130
600000000000000000800000000000000000000000000000,
100000000000000000000000100000000000000000000000,
100000000000000000000000100000000000000000000000,
200000000000000000000000200000000000000000000000,
200000000000000000000000200000000000000000000000,
100000000000000000000000100000000000000000000000,
100000000000000000000000100000000000000000000000,
200000000000000000000000200000000000000000000000,
500000000000000000800000000000000000000000000000,
100000000000000000000000100000000000000000000000,
100000000000100000000000100000000000000000000000,
200000000000000000000000200000000000000000000000,
200000000000200000000000200000000000000000000000,
100000000000000000000000100000000000000000000000,
100000000000100000000000100000000000000000000000,
200000000000000000000000200000000000000000000000,
500000000000000000800000000000000000000000000000,
100000000000000000000000100000000000000000000000,
100000000000100000000000100000000000100000000000,
200000000000000000000000200000000000000000000000,
200000000000200000000000200000000000000000000000,
100000000000000000000000100000000000000000000000,
100000000000100000000000100000000000100000000000,
300000000000300000000000300000000000300000000000,
700000000000000000000000000000800000000000000000,
#GOGOSTART
100000000000000000000000100000000000000000000000,
100000000000100000000000100000000000000000000000,
100000000000000000000000100000000000000000000000,
300000000000300000000000300000000000000000000000,
200000000000000000000000200000000000000000000000,
200000000000200000000000200000000000000000000000,
200000000000000000000000200000000000000000000000,
700000000000000000000000000000800000000000000000,
100000000000000000000000100000000000000000000000,
100000000000100000000000100000000000000000000000,
200000000000200000000000200000000000200000000000,
300000000000300000000000300000000000000000000000,
200000000000000000000000200000000000000000000000,
200000000000200000000000200000000000000000000000,
300000000000000000000000700000000000000000000000,
000000000000000000000000000000800000000000000000,
#GOGOEND
#END