Files
ESE-ja-fix/01 Pop/Champion/Champion.tja
T
2023-06-15 19:15:39 -05:00

350 lines
14 KiB
Plaintext

//TJADB Project
TITLE:Champion
TITLEJA:チャンピオーネ
SUBTITLE:--ORANGE RANGE/The 2006 FIFA World Cup
BPM:140
WAVE:Champion.ogg
OFFSET:-2.141
DEMOSTART:79.257
COURSE:Oni
LEVEL:7
SCOREINIT:680
SCOREDIFF:110
#START
000000000000200000000000000000000000200000000000,
000000000000200000000000000000200000200000000000,
000000000000200000000000000000000000200000000000,
000000000000200000000000000000200000200000101010,
100000000000200000000000000000000000200000000000,
000000000000200000000000000000200000200000000000,
000000000000200000000000000000000000200000000000,
100000200100000200100000100100100100200000000000,
100000100000200000100000200000100000200000200000,
100000100000200000100000100000200000200000000000,
100000100000200000100000200000100000200000200000,
100000100000200000200000100000100000200200200000,
100000100000200000100000200000100000200000200000,
100000100000200000100000100000200000200000000000,
400000000000000000000000000000000000000000000000,
100000100000100000100000100100100100200000000000,
100000200000100000200000100000200000100000100000,
100000200200100000200200100000100000200000200000,
100000200000100000200000100000200000100000100000,
100000200200100000200200100000100000200200200200,
100000200000100000200000100000200000100000100000,
100000200200100000200200100000100000200000200000,
100000200000100000200000100000200000100000100000,
100000200200100000200200100000100000200200200000,
100000100000200000100000000000100000200000100000,
000000100000200000000000100000000000200000200000,
100000100000200000100000000000100000200000100000,
000000100000200000100100100000100000100000100100,
200000100100200000100000100000100100200000100000,
200100000100200000200000100000100100200000100000,
200100000100200000200100100000100100200000100100,
200000200100100000100200000000000000400000000000,
200000100000200100100100000100100100200000100100,
200000100000200000100100200000100000200000000000,
100000200100000100200000100000100200000200100000,
100000100200000100200000000000100100200200200200,
100000100100200000200100100000100100200000200200,
100000100100200000200200100000400000000000400000,
100100100100200000100100200000100100200000200000,
100100100100200000200200100000400000000000400000,
100000100100200000200100100000100100200000200200,
100000100100200000200100100000200200100100200000,
400000000000000000100000200000000000000000100000,
200000100100200100100000100100200000100000200000,
000000100000200100200000200100200000200100200000,
#GOGOSTART
400000000000300000000000100000100000200000100000,
000000100000200000100100100000100100200000200200,
100000100000200000000000100000100000200000100000,
000000100000200000100100100000200200100000100100,
200000000000200000100100100000100000200000100000,
000000100000200000100000000000100000200000000000,
100000000000200000100000000000000000200000000000,
300000300000400000300000200000200000100100100000,
400000000000300000000000100000100000200000100000,
000000100000200000100100100000100100200000200200,
100000100000200000000000100000100100200000200100,
100000300000000000100100100000200200100000100100,
200000000000200000100100100000100000200000100000,
000000100000200000100000000000100000200000000000,
100000000000200000100000000000000000200000000000,
100000100000100000100000100100100000200000000000,
100000000000100000000000100000000000200000000000,
100100100100100100100100100100100100100100100100,
200000100000200000100000200200100000100000200000,
200000100000200000100000200200100000100100200000,
200000100000200000100000200200100000100100200200,
200000100000100000000000100100100100100100100100,
#GOGOEND
200000000000000000000000000000000000000000000000,
#END
COURSE:Hard
LEVEL:6
BALLOON:8
SCOREINIT:680
SCOREDIFF:150
#START
000000000000200000000000000000000000200000000000,
000000000000200000000000000000200000200000000000,
000000000000200000000000000000000000200000000000,
000000000000200000000000000000200000200000000000,
000000000000200000000000000000000000200000000000,
000000000000200000000000000000200000200000000000,
000000000000200000000000000000000000200000000000,
100000100100000100100000100100100000200000000000,
100000100000200000100000000000100000200000100000,
000000100000200000100000000000200000200000000000,
100000100000200000100000000000100000200000000000,
100000100000200000200000100000100000200000000000,
100000100000200000100000000000100000200000100000,
000000100000200000100000000000200000200000000000,
400000000000000000000000000000000000000000000000,
100000100000100000100000100100100000200000000000,
100000000000100000100000000000100000000000100000,
100000000000200000000000100000100000200000200000,
100000000000100000100000000000100000000000100000,
100000000000200000000000100000000000200000000000,
100000000000100000100000000000100000000000100000,
100000000000200000000000100000100000200000200000,
100000000000100000100000000000100000000000100000,
100000000000200000000000100000000000200000000000,
100000100000200000100000000000100000100000100000,
000000100000100000000000100000000000000000000000,
100000100000200000100000000000100000100000100000,
000000100000100000000000100000000000000000000000,
100000100100100000100000100000000100000000100000,
000100000100100000100000100000000100000000100000,
000100000100100000100000100000100100100000100000,
100000000300000000300000000000000000000000000000,
100000100000100100000100000100100100100000100000,
100000100000000000100100100000100000100000000000,
100000100100000100100000100000100100000100100000,
300000000300000000400000000000000000000000000000,
100000100100100000100000100000100100100000100000,
100000100100100000100000100000000000000000000000,
100100100100100000100000200000000000200000000000,
100000100100100000100000100000000000000000000000,
100000100100100000100000100000100100100000100000,
100000100100100000100100100000100000200000100000,
200000000000000000100000200000000000000000100000,
200000100100100000100000100000200000100000200000,
000000000000000000000000000000000000000000000000,
#GOGOSTART
400000000000300000000000100000100000200000100000,
000000000000200000000000100000100000200000200000,
000000000000200000000000100000100000200000100000,
000000100000000000100000100000100000200000000000,
100000000000200000100000000000100000200000100000,
000000100000200000100000000000100000200000000000,
100000000000100000100000000000000000100000000000,
300000300000300000300000000000000000000000000000,
400000000000300000000000100000100000200000100000,
000000000000200000000000100000100000200000200000,
000000000000200000000000100000100000200000000000,
100000300000000000100000000000100000200000000000,
100000000000200000100000000000100000200000100000,
000000100000200000100000000000100000200000000000,
100000000000100000100000000000000000100000000000,
100000100000100000100000100000100000200000000000,
100000000000100000000000100000000000200000000000,
700000000000000000000000000000000800000000000000,
200000100000200000100000200000200000000000100000,
000000100000200000100000100000200000200000000000,
200000100000200000100000200000200000000000100000,
000000100000100000000000500000000000000800000000,
#GOGOEND
400000000000000000000000000000000000000000000000,
#END
COURSE:Normal
LEVEL:4
BALLOON:7,16
SCOREINIT:700
SCOREDIFF:210
#START
000000000000200000000000000000000000200000000000,
000000000000200000000000000000200000200000000000,
000000000000200000000000000000000000200000000000,
000000000000200000000000000000200000200000000000,
000000000000200000000000000000000000200000000000,
000000000000200000000000000000200000200000000000,
000000000000200000000000000000000000200000000000,
500000000000000000000000000000800000000000000000,
100000000000100000000000100000000000100000000000,
100000000000100000000000100000200000200000000000,
100000000000100000000000100000000000100000000000,
500000000000000000000000000000800000000000000000,
100000000000100000000000100000000000100000000000,
100000000000100000000000100000200000200000000000,
400000000000000000000000000000000000000000000000,
700000000000000000000000000000800000000000000000,
100000000000100000000000100000000000100000000000,
300000000000000000000000000000000000000000000000,
100000000000200000000000100000000000200000000000,
300000000000000000000000000000000000000000000000,
100000000000100000000000100000000000100000000000,
300000000000000000000000000000000000000000000000,
100000000000200000000000100000000000200000000000,
300000000000000000000000000000000000000000000000,
200000000000000000000000200000000000000000000000,
100000000000100000000000200000000000000000000000,
200000000000000000000000200000000000000000000000,
100000000000200000000000100000000000000000000000,
100000100000000000000000100000000000000000100000,
000000000000100000000000100000000000000000000000,
100000100000000000000000100000000000000000100000,
000000000000200000000000200000000000000000000000,
100000100000000000000000100000000000000000100000,
000000000000100000000000100000000000000000000000,
100000100000000000000000100000000000000000000000,
200000000000000000400000000000000000000000000000,
100000100000100000000000100000100000100000000000,
100000100000100000000000100000000000000000000000,
100000100000100000000000200000000000200000000000,
100000100000100000000000100000000000000000000000,
100000100000100000000000100000000000000000000000,
100000100000100000000000100000000000100000000000,
200000000000000000000000100000000000000000000000,
500000000000000000000000000000000000000000800000,
000000000000000000000000000000000000000000000000,
#GOGOSTART
100000000000200000000000100000000000000000000000,
100000100000000000000000100000100000000000000000,
100000000000200000000000100000000000000000000000,
100000100000000000000000100000100000000000000000,
100000000000200000000000100000000000200000000000,
100000000000200000000000100000000000000000000000,
100000000000100000100000000000000000100000000000,
300000300000300000300000000000000000000000000000,
100000000000200000000000100000000000200000000000,
100000100000000000000000100000100000000000000000,
100000000000200000000000100000000000200000000000,
100000100000000000000000100000100000000000000000,
100000000000200000000000100000000000200000000000,
100000000000200000000000100000000000000000000000,
100000000000100000100000000000000000100000000000,
100000000000100000000000100000000000200000000000,
700000000000000000000000000000000000000000000000,
000000000000000000000000000000800000000000000000,
200000000000200000000000200000000000200000000000,
200000000000200000000000200000200000200000000000,
200000000000200000000000200000000000200000000000,
000000100000100000000000500000800000000000000000,
#GOGOEND
400000000000000000000000000000000000000000000000,
#END
COURSE:Easy
LEVEL:3
BALLOON:6,14
SCOREINIT:700
SCOREDIFF:190
#START
000000000000200000000000000000000000200000000000,
000000000000200000000000000000200000200000000000,
000000000000200000000000000000000000200000000000,
000000000000200000000000000000200000200000000000,
000000000000200000000000000000000000200000000000,
000000000000200000000000000000200000200000000000,
000000000000200000000000000000000000200000000000,
500000000000000000000000800000000000000000000000,
100000000000100000000000100000000000000000000000,
100000000000100000000000100000000000000000000000,
100000000000100000000000100000000000100000000000,
500000000000000000000000800000000000000000000000,
100000000000100000000000100000000000000000000000,
100000000000100000000000100000000000000000000000,
400000000000000000000000000000000000000000000000,
700000000000000000000000000000800000000000000000,
100000000000000000000000100000000000000000000000,
300000000000000000000000000000000000000000000000,
100000000000000000000000100000000000000000000000,
300000000000000000000000000000000000000000000000,
600000000000000000000000800000000000000000000000,
300000000000000000000000000000000000000000000000,
600000000000000000000000800000000000000000000000,
300000000000000000000000000000000000000000000000,
100000000000000000000000100000000000000000000000,
100000000000100000000000100000000000000000000000,
100000000000000000000000100000000000000000000000,
100000000000100000000000100000000000000000000000,
100000000000000000000000100000000000000000000000,
000000000000100000000000100000000000000000000000,
100000000000000000000000100000000000000000000000,
000000000000200000000000200000000000000000000000,
100000000000000000000000100000000000000000000000,
000000000000100000000000100000000000000000000000,
100000000000000000000000100000000000000000000000,
200000000000000000400000000000000000000000000000,
100000000000000000000000200000000000000000000000,
100000000000100000000000100000000000000000000000,
100000000000000000000000200000000000000000000000,
100000000000100000000000100000000000000000000000,
100000000000000000000000200000000000000000000000,
100000000000100000000000100000000000100000000000,
100000000000000000000000200000000000000000000000,
500000000000000000000000000000000000000000800000,
000000000000000000000000000000000000000000000000,
#GOGOSTART
100000000000200000000000100000000000000000000000,
100000000000000000000000100000000000000000000000,
100000000000200000000000100000000000000000000000,
100000000000000000000000100000000000100000000000,
100000000000000000000000200000000000000000000000,
100000000000000000000000200000000000000000000000,
100000000000100000000000100000000000000000000000,
500000000000000000800000000000000000000000000000,
100000000000200000000000100000000000000000000000,
100000000000000000000000100000000000000000000000,
100000000000200000000000100000000000000000000000,
100000000000000000000000100000000000100000000000,
100000000000000000000000200000000000000000000000,
100000000000000000000000200000000000000000000000,
100000000000100000000000100000000000000000000000,
100000000000100000000000100000000000100000000000,
700000000000000000000000000000000000000000000000,
000000000000000000000000000000800000000000000000,
200000000000200000000000200000000000000000000000,
200000000000200000000000200000000000000000000000,
200000000000200000000000200000000000200000000000,
200000000000000000000000000000000000000000000000,
#GOGOEND
400000000000000000000000000000000000000000000000,
#END