Files
ESE-ja-fix/01 Pop/Chocolate Disco/Chocolate Disco.tja
T
2023-06-15 19:15:39 -05:00

307 lines
3.2 KiB
Plaintext

//TJADB Project
TITLE:Chocolate Disco
TITLEJA:チョコレイト・ディスコ
SUBTITLE:--Perfume
BPM:128
WAVE:Chocolate Disco.ogg
OFFSET:-7.604
DEMOSTART:82.574
COURSE:Oni
LEVEL:5
SCOREINIT:700
SCOREDIFF:160
#START
1002,
1002,
1002,
1002,
10101210,
10101110,
10101210,
500000000000000000000000000000000008000000000000,
1020202022022020,
12121011,
1020202022022020,
12121011,
1020202022022020,
12121011,
12221033,
3330,
1010200010010010,
1010202200202000,
1010200010010010,
1010201100202000,
1010200010010010,
1010202200202000,
1010200010010010,
1010201100000000,
1020102010021020,
1010202202022000,
1020102010021020,
1010201102022000,
1020102010021020,
1010202202022000,
1020102010021020,
1010201100000010,
1001201010012010,
1001201011100010,
1001201010012010,
1001201022200010,
1001201010012010,
1001201011100040,
3333,
600000000000000000000000000000000008000000000000,//40
#GOGOSTART
1020102010222010,
1020102010111000,
1020102010222010,
1020102010111000,
1020102010222010,
1020102010111000,
1020102010222010,
12121033,
3020202022022020,
12121033,
3020202022022020,
12121033,
3020202022022020,
12121033,
32221033,
3330,//56
#GOGOEND
#END
COURSE:Hard
LEVEL:5
SCOREINIT:730
SCOREDIFF:180
#START
1002,
1002,
1002,
1002,
10101210,
10101110,
10101210,
500000000000000000000000000000000008000000000000,
3202,
12121011,
1202,
12121011,
1202,
12121011,
10201033,
3330,
1202,
1010102200000000,
1202,
1010101100000000,
1202,
1010102200000000,
1202,
1010101100000000,
12121212,
1010102200000000,
12121212,
1010101100000000,
12121212,
1010102200000000,
12121212,
1010101100000010,
1001001010010010,
1001001010100010,
1001001010010010,
1001001020200010,
1001001010010010,
1001001010100030,
3333,
600000000000000000000000000000000008000000000000,//40
#GOGOSTART
12121220,
1020102010111000,
12121220,
1020102010111000,
12121220,
1020102010111000,
12121220,
12121033,
3202,
12121033,
3202,
12121033,
3202,
12121033,
30201033,
3330,//56
#GOGOEND
#END
COURSE:Normal
LEVEL:2
BALLOON:5,5
SCOREINIT:600
SCOREDIFF:160
#START
0002,
0002,
0002,
0002,
1112,
1112,
1112,
500000000000000000000000000008000000000000000000,
3,
1113,
3,
1113,
3,
1113,
3003,
3330,
11,
2220,
11,
1110,
11,
2220,
11,
1110,
1111,
2220,
1111,
7008,
1111,
2220,
1111,
7008,
11,
10101100,
11,
20202200,
11,
10101100,
3333,
600000000000000000000000000008000000000000000000,//40
#GOGOSTART
3334,
3334,
3334,
3334,
3334,
3334,
3334,
30303033,
3,
10101033,
3,
10101033,
3,
10101033,
30000033,
3330,//56
#GOGOEND
#END
COURSE:Easy
LEVEL:3
BALLOON:3,3,5,5,5
SCOREINIT:620
SCOREDIFF:160
#START
1,
1,
1,
1,
1110,
1110,
1110,
500000000000000000000000000008000000000000000000,
3,
11,
3,
11,
3,
11,
3,
3330,
11,
2220,
11,
1110,
11,
2220,
11,
1110,
1110,
2220,
1110,
78,
1110,
2220,
1110,
78,
11,
1110,
11,
2220,
11,
1110,
3333,
600000000000000000000000000000000008000000000000,//40
#GOGOSTART
3333,
3333,
3333,
3333,
3333,
3333,
3333,
3333,
3,
9009,
8,
9009,
8,
9009,
8,
3330,//56
#GOGOEND
#END