Files
ESE-ja-fix/01 Pop/Desire/Desire.tja
T
2023-06-15 19:05:10 -05:00

590 lines
16 KiB
Plaintext

//TJADB Project
TITLE:Desire
TITLEJA:Desire
SUBTITLE:--Do As Infinity/AUBE
SUBTITLEJA:Do As Infinity
BPM:122
WAVE:Desire.ogg
OFFSET:-2.193
DEMOSTART:91.434
COURSE:Oni
LEVEL:8
BALLOON:8,12
SCOREINIT:670
SCOREDIFF:170
#START
100000000000200000000000200000000000200000100000,
100000000000200000000000100000000000200000000000,
100000000000200000000000200000000000200000100000,
100000000000200000000000200000000000200000100000,
700000000000000000000000800000000000000000000000,
100000000000200000000000100000100000200000100000,
100000000000200000000000100000100000200000000000,
100000000000200000000000100000100000200000100000,
100000000000100000100000100000000000000000000000,
100000000000200000200000100100100000200000100000,
100000000000200000200000100100100000200000100000,
100000100100100000100000100000100100100000100000,
100000100000000000000000100000100000000000100100,
#BPMCHANGE 122.04
#SCROLL 0.99
200000000000000000100000100100000200000100100000,
#BPMCHANGE 122.5
100000100100200000100000100100000100200000100000,
#BPMCHANGE 121.46
#SCROLL 1
100000100100200000100000100100000100200000200000,
#BPMCHANGE 122
100000100100200000100000100100000100200000100000,
100100100100200200200200100100100000200000100000,
#BPMCHANGE 122.46
#SCROLL 0.99
100000100100200000100000100100000100200000100000,
#BPMCHANGE 121.96
#SCROLL 1
100000100100200000100000100100000100200000200000,
#BPMCHANGE 122.23
#SCROLL 0.99
100000100100200000100000100100000100200000100000,
#BPMCHANGE 121.69
#SCROLL 1
700000000000000000000000000000000000800000000000,
#BPMCHANGE 122.32
#SCROLL 0.99
100000000000200000100000100200100000200000100000,
#BPMCHANGE 121.87
#SCROLL 1
100000100100200000100000100200100000200000000000,
#BPMCHANGE 123.05
#SCROLL 0.99
100000100000200000100000100100100000200000000000,
#BPMCHANGE 120.89
#SCROLL 1
100000100000200000100000100100100000200000000000,
#BPMCHANGE 122.05
#SCROLL 0.99
100000000000200000100000100200100000200000100000,
#BPMCHANGE 122.41
100000100100200000100000100200100000200000000000,
#BPMCHANGE 121.69
#SCROLL 1
100000100000200000100000100100100000200000000000,
#BPMCHANGE 121.42
500000000000000000000000000000000008000000000000,
#BPMCHANGE 122.5
#SCROLL 0.99
100000100100200000200100000200000100200000200200,
#BPMCHANGE 122.23
100000100100200000200000100200000100200000200200,
#BPMCHANGE 122.05
100000100100200000200000100200000100200000200200,
#BPMCHANGE 121.24
#SCROLL 1
100000100100200000200000100200000100200000200200,
#BPMCHANGE 122.78
#SCROLL 0.99
100000100100200000200100000200000100200000200200,
#BPMCHANGE 122.5
100000100100200000100200000200000100200000200200,
#BPMCHANGE 121.6
#SCROLL 1
100000100100200000200100000200000100200000200200,
#BPMCHANGE 122.23
#SCROLL 0.99
100000100100200000200100200000200100200200200200,
#BPMCHANGE 120.91
#SCROLL 1
100000000000200000100000000000100000200000100100,
#BPMCHANGE 123.76
#SCROLL 0.98
100000000000200000100100100000000000200000200200,
#BPMCHANGE 120.29
#SCROLL 1.01
100000000000100000200000000000100000200200200000,
#BPMCHANGE 122
#SCROLL 1
500000000000000000000000000000000008000000000000,
#BPMCHANGE 122.71
#SCROLL 0.99
100000000000200000100000100200100000200000100100,
#BPMCHANGE 121.3
#SCROLL 1
100000000000200000100000100200100000200000200000,
#BPMCHANGE 122.38
#SCROLL 0.99
500000000000000000000000000000000008000000000000,
#BPMCHANGE 121.63
#SCROLL 1
300000003000000000100100000000100000200200200200,
#GOGOSTART
#BPMCHANGE 122.54
#SCROLL 0.99
100000100100200000200000100100100100200000100000,
#BPMCHANGE 122.05
100000100100200000200000100100100100200000100000,
#BPMCHANGE 122.41
100000100100100000100000200000200200200000200000,
#BPMCHANGE 121.87
#SCROLL 1
100000100100100000100000100000000000200200200200,
100000100100200000200000100100100100200000100000,
#BPMCHANGE 121.27
100000100100200000200000100100100100200000100000,
#BPMCHANGE 123.29
#SCROLL 0.98
100000100100100000100000200000000000200200100000,
#BPMCHANGE 122.77
#SCROLL 0.99
400000000000200000100100000200000100200000100100,
#BPMCHANGE 121.24
#SCROLL 1
100000100100200000200000200200100100200100100100,
#BPMCHANGE 121.78
200000000000200000100000500000000000000000000008,
#GOGOEND
#END
COURSE:Hard
LEVEL:7
BALLOON:8,10,15
SCOREINIT:740
SCOREDIFF:190
#START
100000000000200000000000200000000000200000100000,
100000000000200000000000100000000000200000000000,
100000000000200000000000200000000000200000100000,
100000000000200000000000200000000000200000100000,
700000000000000000000008000000000000000000000000,
100000000000200000000000100000100000200000000000,
100000000000200000000000100000100000200000000000,
100000000000200000000000100000100000200000100000,
100000000000100000100000100000000000000000000000,
100000000000200000000000100000100000200000000000,
100000000000200000000000100000100000200000000000,
100000100000100000000000100000100000100000000000,
100000100000000000000000100000100000000000200200,
#BPMCHANGE 122.04
#SCROLL 0.99
200000000000000000000000000000000000000000000000,
#BPMCHANGE 122.5
100000100100200000000000100100000100100000000000,
#BPMCHANGE 121.46
#SCROLL 1
100000100100200000000000100100000100100000000000,
#BPMCHANGE 122
100000100100200000000000100100000100100000000000,
100100100000200200200000100100100000200000000000,
#BPMCHANGE 122.46
#SCROLL 0.99
100000100100200000000000100100000100100000000000,
#BPMCHANGE 121.96
#SCROLL 1
100000100100200000000000100100000100100000000000,
#BPMCHANGE 122.23
#SCROLL 0.99
100000100100200000000000100100000100100000000000,
#BPMCHANGE 121.69
#SCROLL 1
700000000000000000000000000000000008000000000000,
#BPMCHANGE 122.32
#SCROLL 0.99
100000000000200000100000000000100000200000000000,
#BPMCHANGE 121.87
#SCROLL 1
100000000000200000100000000000100000200000000000,
#BPMCHANGE 123.05
#SCROLL 0.99
100000100000200000100000100000100000200000000000,
#BPMCHANGE 120.89
#SCROLL 1
100000100000200000100000000000100000100000000000,
#BPMCHANGE 122.05
#SCROLL 0.99
100000000000200000100000000000100000200000000000,
#BPMCHANGE 122.41
100000000000200000100000000000100000200000000000,
#BPMCHANGE 121.69
#SCROLL 1
100000100000200000100000100000100000200000000000,
#BPMCHANGE 121.42
500000000000000000000000000000000080000000000000,
#BPMCHANGE 122.5
#SCROLL 0.99
100000100100100000100000000000100000100000000000,
#BPMCHANGE 122.23
100000100100100000100000000000200000200000000000,
#BPMCHANGE 122.05
200000200200200000200000000000100000100000000000,
#BPMCHANGE 121.24
#SCROLL 1
200000200200200000200000000000200000200000000000,
#BPMCHANGE 122.78
#SCROLL 0.99
100000100100100000100000000000100000100000000000,
#BPMCHANGE 122.5
100000100100100000100000000000200000200000000000,
#BPMCHANGE 121.6
#SCROLL 1
100000100100100000000000200000200200200000000000,
#BPMCHANGE 122.23
#SCROLL 0.99
100000100100100000100000100000000000000000000000,
#BPMCHANGE 120.91
#SCROLL 1
100000000100100000100000000000100000200000000000,
#BPMCHANGE 123.76
#SCROLL 0.98
100000000100100000100000000000100000200000000000,
#BPMCHANGE 120.29
#SCROLL 1.01
100000000200200000200000000000200000200000200000,
#BPMCHANGE 122
#SCROLL 1
500000000000000000000000000000000080000000000000,
#BPMCHANGE 122.71
#SCROLL 0.99
100000000000200000100000000000100000200000000000,
#BPMCHANGE 121.3
#SCROLL 1
100000000000200000100000000000200000200000200000,
#BPMCHANGE 122.38
#SCROLL 0.99
500000000000000000000000000000000080000000000000,
#BPMCHANGE 121.63
#SCROLL 1
300000003000000000100100000000000000000000000000,
#GOGOSTART
#BPMCHANGE 122.54
#SCROLL 0.99
100000100100200000000000100100100100100000000000,
#BPMCHANGE 122.05
100000100100200000000000100100100100100000000000,
#BPMCHANGE 122.41
100000100100100000000000200000200200200000000000,
#BPMCHANGE 121.87
#SCROLL 1
100000100100100000100100100000000000000000000000,
100000100100200000000000100100100100200000000000,
#BPMCHANGE 121.27
100000100100200000000000100100100100200000000000,
#BPMCHANGE 123.29
#SCROLL 0.98
100000100100100000100100100000000000200200200000,
#BPMCHANGE 122.77
#SCROLL 0.99
400000000000100000100100000100000100100000000000,
#BPMCHANGE 121.24
#SCROLL 1
100000100100100000100100000100000100100000000000,
#BPMCHANGE 121.78
700000000000000000000000000000000000000000000008,
#GOGOEND
#END
COURSE:Normal
LEVEL:3
BALLOON:6,8,10,5,10
#START
100000000000000000000000200000000000000000000000,
100000000000100000000000100000000000000000000000,
100000000000000000000000200000000000000000000000,
100000000000100000000000100000000000000000000000,
700000000000000000000008000000000000000000000000,
100000000000200000000000000000000000200000000000,
100000000000100000000000100000000000000000000000,
100000000000200000000000000000000000200000000000,
100000000000100000000000100000000000000000000000,
200000000000200000000000000000000000200000000000,
200000000000200000000000200000000000000000000000,
100000000000200000000000100000000000200000000000,
500000000000000000000000000000000080000000000000,
#BPMCHANGE 122.04
#SCROLL 0.99
400000000000000000000000000000000000000000000000,
#BPMCHANGE 122.5
100000000000100000000000100000000000000000000000,
#BPMCHANGE 121.46
#SCROLL 1
100000000000100000000000100000000000000000000000,
#BPMCHANGE 122
100000000000100000000000200000000000200000000000,
500000000000000000000000000000000080000000000000,
#BPMCHANGE 122.46
#SCROLL 0.99
100000000000100000000000100000000000000000000000,
#BPMCHANGE 121.96
#SCROLL 1
100000000000100000000000100000000000000000000000,
#BPMCHANGE 122.23
#SCROLL 0.99
100000000000100000000000200000000000200000000000,
#BPMCHANGE 121.69
#SCROLL 1
700000000000000000000000000000000008000000000000,
#BPMCHANGE 122.32
#SCROLL 0.99
100000000000200000000000000000000000200000000000,
#BPMCHANGE 121.87
#SCROLL 1
100000000000200000000000000000000000200000000000,
#BPMCHANGE 123.05
#SCROLL 0.99
100000000000200000000000100000000000200000000000,
#BPMCHANGE 120.89
#SCROLL 1
100000000000000000000000000000000000000000000000,
#BPMCHANGE 122.05
#SCROLL 0.99
100000000000200000000000000000000000200000000000,
#BPMCHANGE 122.41
100000000000200000000000000000000000200000000000,
#BPMCHANGE 121.69
#SCROLL 1
100000000000200000000000100000000000200000000000,
#BPMCHANGE 121.42
500000000000000000000000000000000080000000000000,
#BPMCHANGE 122.5
#SCROLL 0.99
100000000000100000100000000000000000100000000000,
#BPMCHANGE 122.23
100000000000100000100000000000000000000000000000,
#BPMCHANGE 122.05
200000000000200000200000000000000000200000000000,
#BPMCHANGE 121.24
#SCROLL 1
200000000000200000200000000000000000000000000000,
#BPMCHANGE 122.78
#SCROLL 0.99
100000000000100000100000000000000000100000000000,
#BPMCHANGE 122.5
100000000000100000100000000000000000000000000000,
#BPMCHANGE 121.6
#SCROLL 1
100000000000100000000000200000000000200000000000,
#BPMCHANGE 122.23
#SCROLL 0.99
500000000000000000000000000000000080000000000000,
#BPMCHANGE 120.91
#SCROLL 1
100000000000100000100000000000000000200000000000,
#BPMCHANGE 123.76
#SCROLL 0.98
100000000000100000100000000000000000100000000000,
#BPMCHANGE 120.29
#SCROLL 1.01
100000000000100000100000000000000000200000000000,
#BPMCHANGE 122
#SCROLL 1
500000000000000000000000000000000080000000000000,
#BPMCHANGE 122.71
#SCROLL 0.99
100000000000100000100000000000000000100000000000,
#BPMCHANGE 121.3
#SCROLL 1
200000000000200000200000000000000000200000000000,
#BPMCHANGE 122.38
#SCROLL 0.99
700000000000000000000000000000000000000000000080,
#BPMCHANGE 121.63
#SCROLL 1
000000000000000000000000000000000000000000000000,
#GOGOSTART
#BPMCHANGE 122.54
#SCROLL 0.99
100000000000200000000000100000100000100000000000,
#BPMCHANGE 122.05
100000000000200000000000100000000000000000000000,
#BPMCHANGE 122.41
100000000000100000000000200000000000200000000000,
#BPMCHANGE 121.87
#SCROLL 1
100000000000100000000000100000000000000000000000,
100000000000200000000000100000100000100000000000,
#BPMCHANGE 121.27
100000000000200000000000100000000000000000000000,
#BPMCHANGE 123.29
#SCROLL 0.98
100000000000100000000000200000000000200000000000,
#BPMCHANGE 122.77
#SCROLL 0.99
700000000000000000000008000000000000000000000000,
#BPMCHANGE 121.24
#SCROLL 1
100000000000000000000000100000000000100000000000,
#BPMCHANGE 121.78
700000000000000000000000000000000000000000000080,
#GOGOEND
#END
COURSE:Easy
LEVEL:3
BALLOON:4,6,8,4,8
#START
100000000000000000000000000000000000000000000000,
100000000000100000000000100000000000000000000000,
100000000000000000000000000000000000000000000000,
100000000000100000000000100000000000000000000000,
700000000000000000000008000000000000000000000000,
100000000000100000000000000000000000000000000000,
100000000000100000000000100000000000000000000000,
100000000000100000000000000000000000000000000000,
100000000000100000000000100000000000000000000000,
200000000000200000000000000000000000000000000000,
200000000000200000000000200000000000000000000000,
100000000000000000000000100000000000000000000000,
500000000000000000000000000080000000000000000000,
#BPMCHANGE 122.04
#SCROLL 0.99
300000000000000000000000000000000000000000000000,
#BPMCHANGE 122.5
100000000000000000000000100000000000000000000000,
#BPMCHANGE 121.46
#SCROLL 1
100000000000100000000000100000000000000000000000,
#BPMCHANGE 122
100000000000000000000000100000000000000000000000,
500000000000000000000000000080000000000000000000,
#BPMCHANGE 122.46
#SCROLL 0.99
100000000000000000000000100000000000000000000000,
#BPMCHANGE 121.96
#SCROLL 1
100000000000100000000000100000000000000000000000,
#BPMCHANGE 122.23
#SCROLL 0.99
100000000000000000000000100000000000000000000000,
#BPMCHANGE 121.69
#SCROLL 1
700000000000000000000000000008000000000000000000,
#BPMCHANGE 122.32
#SCROLL 0.99
100000000000100000000000000000000000000000000000,
#BPMCHANGE 121.87
#SCROLL 1
100000000000100000000000000000000000000000000000,
#BPMCHANGE 123.05
#SCROLL 0.99
100000000000100000000000100000000000000000000000,
#BPMCHANGE 120.89
#SCROLL 1
100000000000000000000000100000000000000000000000,
#BPMCHANGE 122.05
#SCROLL 0.99
100000000000100000000000000000000000000000000000,
#BPMCHANGE 122.41
100000000000100000000000000000000000000000000000,
#BPMCHANGE 121.69
#SCROLL 1
100000000000100000000000200000000000200000000000,
#BPMCHANGE 121.42
500000000000000000000000000080000000000000000000,
#BPMCHANGE 122.5
#SCROLL 0.99
100000000000100000100000000000000000000000000000,
#BPMCHANGE 122.23
100000000000100000100000000000000000000000000000,
#BPMCHANGE 122.05
200000000000200000200000000000000000000000000000,
#BPMCHANGE 121.24
#SCROLL 1
200000000000200000200000000000000000000000000000,
#BPMCHANGE 122.78
#SCROLL 0.99
100000000000100000100000000000000000000000000000,
#BPMCHANGE 122.5
100000000000100000100000000000000000000000000000,
#BPMCHANGE 121.6
#SCROLL 1
100000000000100000000000200000000000200000000000,
#BPMCHANGE 122.23
#SCROLL 0.99
500000000000000000000000000080000000000000000000,
#BPMCHANGE 120.91
#SCROLL 1
100000000000100000100000000000000000100000000000,
#BPMCHANGE 123.76
#SCROLL 0.98
100000000000100000100000000000000000000000000000,
#BPMCHANGE 120.29
#SCROLL 1.01
100000000000100000100000000000000000100000000000,
#BPMCHANGE 122
#SCROLL 1
500000000000000000000000000080000000000000000000,
#BPMCHANGE 122.71
#SCROLL 0.99
100000000000100000000000000000000000000000000000,
#BPMCHANGE 121.3
#SCROLL 1
100000000000100000000000000000000000000000000000,
#BPMCHANGE 122.38
#SCROLL 0.99
700000000000000000000000000000000000000000000080,
#BPMCHANGE 121.63
#SCROLL 1
000000000000000000000000000000000000000000000000,
#GOGOSTART
#BPMCHANGE 122.54
#SCROLL 0.99
100000000000100000000000100000000000000000000000,
#BPMCHANGE 122.05
100000000000100000000000100000000000000000000000,
#BPMCHANGE 122.41
200000000000000000000000200000000000000000000000,
#BPMCHANGE 121.87
#SCROLL 1
100000000000100000000000100000000000000000000000,
100000000000100000000000100000000000000000000000,
#BPMCHANGE 121.27
100000000000100000000000100000000000000000000000,
#BPMCHANGE 123.29
#SCROLL 0.98
100000000000100000000000200000000000200000000000,
#BPMCHANGE 122.77
#SCROLL 0.99
700000000000000000000008000000000000000000000000,
#BPMCHANGE 121.24
#SCROLL 1
000000000000000000000000100000000000100000000000,
#BPMCHANGE 121.78
700000000000000000000000000000000000000000000080,
#GOGOEND
#END