Files
ESE-ja-fix/01 Pop/Don’ts Don’ts/Don’ts Don’ts.tja
T
2023-06-15 19:05:10 -05:00

286 lines
11 KiB
Plaintext
Raw Blame History

This file contains ambiguous Unicode characters
This file contains Unicode characters that might be confused with other characters. If you think that this is intentional, you can safely ignore this warning. Use the Escape button to reveal them.
//TJADB Project
TITLE:Don’ts Don’ts
TITLEJA:傷心的人別聽慢歌(貫徹快樂)
SUBTITLE:--Mayday
BPM:135
WAVE:Don’ts Don’ts.ogg
OFFSET:-2.085
DEMOSTART:60.085
COURSE:Oni
LEVEL:7
BALLOON:13,18
SCOREINIT:740
SCOREDIFF:195
#START
100000000000200000100000100000000000200000100000,
100000200000100000200200100000200000100000100200,
100000000000200000100000100000000000200000100000,
100000200000100000200000100100200000200200200200,
100000000000200000100000100000000000200000100000,
100000200000100000200200100000200000100000100100,
200000000000200000100000100000000000200000100000,
100000200000100000200000100100200000100100100000,
100000000000100000000000100000000000100000000000,
300000200200100100100000100000200000100000200000,
100000200200100100100000100000100000200000200000,
100000200200100100100000100000200000100000100100,
100000200000100000100100100200200000100100200000,
300000000000300000000000000000000000500000000000,
000000000000000000000008000000000000600000000000,
000000000000000000000000000000000008000000000000,
100000000000000000000000000000000000200200200000,
300000200200100100100000100000200000100100200200,
100000200200100100100000100000100000200100200100,
100000200200100100100000100000100100200000100100,
100000200000100000100100100200200000100100200000,
300000000000300000000000000000000000700000000000,
000000000000000000000000800000000000700000000000,
000000000000000000000000000000000000000000000000,
800000000000000000000000200200200000200200200000,
100000200000100000200100100000200000100000200000,
000000200000100000200000100100200000100000200000,
000000200000100000200000100100200000100000200000,
000000200000100000200000200200200000100100100100,
100000200000100000200100100000200000100000200000,
000000200000100000200000100100200000100000200000,
000000200000100000200000100100200000200000000000,
100000200000100100100100200000000000000000000000,
#GOGOSTART
200200100000200200100000200200100000200200100000,
200000100000200200200000200100100000200000100000,
100100200000100100200000100100200000100100200000,
100000200000100100100000000000100000100000100000,
200200100000200200100000200200100000200200100000,
200000100000200200200000200100100000200000100000,
100100200000100100200000100100200000100100200000,
100100200200100100200000200000100100100000100100,
200000100000200200100000100000200000100100200000,
200000100000200200100000100000200000100100200000,
#GOGOEND
300000000000000000000000000000000000000000000000,
100000000000200000100000100000000000200000100000,
100000200000100000200200100000200000100000100200,
100000000000200000100000100000000000200000100000,
100000200000100000200000100100200000200200200200,
100000000000200000100000100000000000200000100000,
100000200000100000200200100100200000100000100100,
200000000000200000100000100000000000200000100100,
100000200000100100200000100000200200100200100000,
200000200000200000200200000000000000300000000000,
#END
COURSE:Hard
LEVEL:6
BALLOON:11,15
SCOREINIT:800
#START
100000000000200000100000100000000000200000100000,
100000200000100000200000100000200000100000100000,
100000000000200000100000100000000000200000100000,
100000200000100000200000100000200000100100100000,
100000000000200000100000100000000000200000100000,
100000200000100000200000100000200000100000100000,
200000000000200000100000100000000000200000100000,
100000200000100000200000100000200000100100100000,
100000000000100000000000100000000000100000000000,
300000100100100000200000100000200000100000200000,
100000100100100000200000100000200000100000200000,
100000100100100000200000100000200000100000200000,
100000200000100000200000100000200000200200000000,
300000000000300000000000000000000000500000000000,
000000000000000000800000000000000000600000000000,
000000000000000000000000000000800000000000000000,
100000000000000000000000000000000000200200200000,
300000100100100000200000100000200000100000200000,
100000100100100000200000100000200000100000200000,
100000100100100000200000100000200000100000200000,
100000200000100000200000100000200000200200000000,
300000000000300000000000000000000000700000000000,
000000000000000000000000800000000000900000000000,
000000000000000000000000000000000000000000000000,
800000000000000000000000000000000000000000000000,
100000000000100000100100100000100000100000100000,
000000100000200000100000000000200000200000100000,
000000100000200000100000000000200000200000500000,
000000000000000000000000000000000800000000000000,
100000000000100000100100100000100000100000100000,
000000100000200000100000000000200000200000100000,
000000100000200000100000000000200000200000000000,
300000300000400000400000000000000000000000000000,
#GOGOSTART
200000100000200000100000200000100000200000100000,
200000100000200000200000000000000000000000000000,
100000200000100000200000100000200000100000200000,
100000200000100000100000000000000000000000000000,
200000100000200000100000200000100000200000100000,
200000100000200000200000000000000000000000000000,
100000200000100000200000100000200000100000200000,
100000200000100000100000000000100000100000100000,
000000200000200000200000000000100000100000100000,
000000200000200000200000000000100000100000000000,
#GOGOEND
300000000000000000000000000000000000000000000000,
100000000000200000100000100000000000200000100000,
100000200000100000200000100000200000100000100000,
100000000000200000100000100000000000200000100000,
100000200000100000200000100000200000100100100000,
100000000000200000100000100000000000200000100000,
100000200000100000200000100000200000100000100000,
200000000000200000100000100000000000200000100100,
100000100000100100100000100000100000100100100000,
200000200000200000200200000000000000300000000000,
#END
COURSE:Normal
LEVEL:4
BALLOON:7,10
SCOREINIT:1110
#START
100000000000000000100000100000000000000000000000,
100000000000100000000000100000000000100000000000,
100000000000000000100000100000000000000000000000,
200000000000200000000000200000000000200000000000,
100000000000000000100000100000000000000000000000,
100000000000100000000000100000000000100000000000,
100000000000000000100000100000000000000000000000,
200000000000200000000000200000000000200000000000,
100000000000100000000000100000000000100000000000,
300000000000000000000000200000000000200000000000,
100000000000000000000000200000000000200000000000,
100000000000000000000000200000000000200000000000,
100000000000000000000000100000000000200000000000,
300000000000300000000000000000000000500000000000,
000000000000000000800000000000000000600000000000,
000000000000000000000000000000800000000000000000,
100000000000000000000000000000000000000000000000,
300000000000000000000000200000000000200000000000,
100000000000000000000000200000000000200000000000,
100000000000000000000000200000000000200000000000,
100000000000000000000000100000000000200000000000,
300000000000300000000000000000000000700000000000,
000000000000000000800000000000000000900000000000,
000000000000000000000000000000000000000000000000,
800000000000000000000000000000000000000000000000,
100000000000100000000000100000000000000000200000,
000000200000000000000000000000000000000000200000,
000000200000000000000000000000000000000000500000,
000000000000000000000000000000800000000000000000,
100000000000100000000000100000000000000000200000,
000000200000000000000000000000000000000000200000,
000000200000000000000000000000000000000000000000,
500000000000000000800000000000000000000000000000,
#GOGOSTART
200000200000200000000000200000200000200000000000,
200000200000200000000000000000000000000000000000,
100000100000100000000000100000100000100000000000,
100000100000100000000000000000000000000000000000,
200000200000200000000000200000200000200000000000,
200000200000200000000000000000000000000000000000,
100000100000100000000000100000100000100000000000,
100000100000100000000000000000000000000000000000,
100000000000100000000000200000000000200000000000,
100000000000100000000000200000000000200000000000,
#GOGOEND
300000000000000000000000000000000000000000000000,
100000000000000000100000100000000000000000000000,
100000000000100000000000100000000000100000000000,
100000000000000000100000100000000000000000000000,
200000000000200000000000200000000000200000000000,
100000000000000000100000100000000000000000000000,
100000000000100000000000100000000000100000000000,
100000000000000000100000100000000000000000000000,
200000000000200000000000200000000000200000000000,
500000000000800000000000000000000000300000000000,
#END
COURSE:Easy
LEVEL:3
BALLOON:6,9
SCOREINIT:1110
#START
100000000000000000000000100000000000000000000000,
100000000000100000000000100000000000000000000000,
100000000000000000000000100000000000000000000000,
200000000000200000000000200000000000000000000000,
100000000000000000000000100000000000000000000000,
100000000000100000000000100000000000000000000000,
100000000000000000000000100000000000000000000000,
200000000000200000000000200000000000000000000000,
100000000000100000000000100000000000100000000000,
100000000000000000000000200000000000000000000000,
100000000000000000000000200000000000000000000000,
100000000000000000000000200000000000000000000000,
100000000000000000000000100000000000200000000000,
300000000000000000000000000000000000500000000000,
000000000000000000800000000000000000600000000000,
000000000000000000000000000000800000000000000000,
000000000000000000000000000000000000000000000000,
100000000000000000000000200000000000000000000000,
100000000000000000000000200000000000000000000000,
100000000000000000000000200000000000000000000000,
100000000000000000000000100000000000200000000000,
300000000000000000000000000000000000700000000000,
000000000000000000800000000000000000900000000000,
000000000000000000000000000000000000000000000000,
800000000000000000000000000000000000000000000000,
100000000000000000000000100000000000000000100000,
000000100000000000000000000000000000000000100000,
000000100000000000000000000000000000000000500000,
000000000000000000800000000000000000000000000000,
100000000000000000000000100000000000000000100000,
000000100000000000000000000000000000000000100000,
000000100000000000000000000000000000000000000000,
500000000000000000800000000000000000000000000000,
#GOGOSTART
200000000000200000000000200000000000200000000000,
200000000000000000000000000000000000000000000000,
100000000000100000000000100000000000100000000000,
100000000000000000000000000000000000000000000000,
200000000000200000000000200000000000200000000000,
200000000000000000000000000000000000000000000000,
100000000000100000000000100000000000100000000000,
100000000000000000000000000000000000000000000000,
300000000000000000000000400000000000000000000000,
300000000000000000000000400000000000000000000000,
#GOGOEND
300000000000000000000000000000000000000000000000,
100000000000000000000000100000000000000000000000,
100000000000100000000000100000000000000000000000,
100000000000000000000000100000000000000000000000,
200000000000200000000000200000000000000000000000,
100000000000000000000000100000000000000000000000,
100000000000100000000000100000000000000000000000,
100000000000000000000000100000000000000000000000,
200000000000200000000000200000000000000000000000,
500000000000800000000000000000000000300000000000,
#END