Files
ESE-ja-fix/01 Pop/Du Jia Kuai Le/Du Jia Kuai Le.tja
T
2023-06-15 19:05:10 -05:00

432 lines
15 KiB
Plaintext

//TJADB Project
TITLE:Du Jia Kuai Le
TITLEJA:獨家快樂
SUBTITLE:--Genie Chuo
BPM:146
WAVE:Du Jia Kuai Le.ogg
OFFSET:-1.766
DEMOSTART:42.861
COURSE:Oni
LEVEL:6
BALLOON:12
SCOREINIT:600
SCOREDIFF:140
#START
000000000000000000000000000000000000000000000000,
000000000000000000000000000000000000000000000000,
#BPMCHANGE 146.76
000000000000000000000000000000000000000000000000,
#BPMCHANGE 146
100000000000200000200000000000100000200000100100,
100000000000200000200000100100100000100100100000,
100000000000200000200000000000100000200000100100,
100000000000200000200000100100200000100100200000,
100000000000200000200000000000100000200000100100,
100000000000200000200000100100100000100100100000,
100000000000200000200000000000100100100000100000,
700000000000000000000000000000000000800000000000,
#BPMCHANGE 144.9
100000200000100000200000100000000000200000000000,
#BPMCHANGE 146
100000200000100000200000100000000000200000000000,
100000200000100100100000200000000000000000000000,
100000200000100100100000200000000000000000000000,
100000200000100000200000100000000000200000000000,
100000200000100000200000100000000000200000000000,
100000200000100100100000200000000000000000000000,
100000200000100100100000200000000000000000000000,
100000000000200000100100100000000000200000000000,
100000000000200000100100100000000000000000000000,
100000200000100100200000100000000000200000000000,
100000200000100100200000100000000000500000000000,
000000000000000000000000000000000000000000000008,
#BPMCHANGE 147.12
000000000000000000000000000000000000000000000000,
#GOGOSTART
#BPMCHANGE 146
100000000000200000200000100100200000100000100000,
000000100000200000200000100100100000200000000000,
100000000000200000200000100000100100200000100000,
000000100000200000100000200200100000200200100000,
100000000000200000200000100100200000100000100000,
000000100000200000100000100100100000200000000000,
100000000000200000200000100100200000100000000000,
100000200000100100200000300000000000000000000000,
100000000000200000200000100100200000100000100000,
000000100000200000100000100100100000200000000000,
100000000000200000200000100100200000100000100000,
000000100000200000100000200200100000200200100000,
100000000000200000200000100100200000100000100000,
000000100000200000100000100100100000200000000000,
100000000000200000200000100100100000200000100000,
100000000000200000200000100100100000200000100000,
100000200000200200100000200200100000200000000000,
500000000000000000000000000000000008
#BPMCHANGE 159
000000000000,
#GOGOEND
#BPMCHANGE 146
100000000000100000100000200000100000000000200000,
100000000000100000100000200000100100100000200000,
100000000000100000100000200000100000000000200000,
100000000000100000100000200000100100100000200000,
100000000000100000100000200000100000000000200000,
#BPMCHANGE 145.4
100000100100100000100000200000100100100000000000,
#BPMCHANGE 146
300000300000000000300000300000000000300000300000,
000000000000000000000000000000000000
#BPMCHANGE 172.5
000000000000,
#GOGOSTART
#BPMCHANGE 146
100000000000200000200000100100200000100000100000,
000000100000200000200000100100100000200000000000,
100000000000200000200000100000100100200000100000,
000000100000200000100000200200100000200200100000,
100000000000200000200000100100200000100000100000,
000000100000200000200000100100100000200000000000,
100000000000200000200000100100100000200000100000,
100000000000200000200000100100100000200000100000,
100000200000200200100000200200100000200000000000,
500000000000000000000000000000000000000000000008,
#GOGOEND
000000000000200000200000000000100000200000100100,
100000000000200000200000000000100000200000100100,
100000000000200000200000000000100000200000100100,
100000000000200000200000100100200000100100200000,
100000000000200000200000000000100000200000100100,
100000000000200000200000000000100000200000100100,
100000000000200000200000000000100000200000100100,
100000200000100100200000100000200000100100200000,
300000300000000000400000400000000000300000300000,
#END
COURSE:Hard
LEVEL:5
BALLOON:10
#START
000000000000000000000000000000000000000000000000,
000000000000000000000000000000000000000000000000,
#BPMCHANGE 146.76
000000000000000000000000000000000000000000000000,
#BPMCHANGE 146
100000000000200000200000000000100000200000000000,
100000000000200000200000000000100000200000000000,
100000000000200000200000000000100000200000000000,
100000000000200000200000100000100000200000000000,
100000000000200000200000000000100000200000000000,
100000000000200000200000000000100000200000000000,
100000000000200000200000000000100000200000100000,
700000000000000000000000000000000800000000000000,
#BPMCHANGE 144.9
100000000000100000200000100000000000200000000000,
#BPMCHANGE 146
100000000000100000200000100000000000200000000000,
100000000000100000100000200000000000000000000000,
100000000000100000100000200000000000000000000000,
100000000000100000200000100000000000200000000000,
100000000000100000200000100000000000200000000000,
100000000000100000100000200000000000000000000000,
100000000000100000100000200000000000000000000000,
100000000000200000100000100000000000200000000000,
100000000000200000100000100000000000000000000000,
100000100000200000100000100000000000200000000000,
100000100000200000100000100000000000500000000000,
000000000000000000000000000000000000000000000008,
#BPMCHANGE 147.12
000000000000000000000000000000000000000000000000,
#GOGOSTART
#BPMCHANGE 146
100000000000200000200000100000000000200000000000,
100000100000200000200000100000000000200000000000,
100000000000200000200000000000100000200000100000,
000000100000200000200000300000000000300000000000,
100000000000200000200000100000000000200000000000,
100000100000200000200000100000000000200000000000,
100000000000200000200000000000100000200000000000,
300000300000000000300000300000000000000000000000,
100000000000200000200000100000000000200000000000,
100000100000200000200000100000000000200000000000,
100000000000200000200000000000100000200000100000,
000000100000200000200000300000000000300000000000,
100000000000200000200000100000000000200000000000,
100000100000200000200000100000000000200000000000,
100000000000200000200000000000100000200000000000,
100000100000200000200000100000000000200000000000,
300000300000000000300000300000000000300000000000,
500000000000000000000000000000000000
#BPMCHANGE 159
000000000080,
#GOGOEND
#BPMCHANGE 146
000000000000000000000000200000000000000000200000,
100000000000100000100000200000000000000000200000,
100000000000100000000000200000000000000000200000,
100000000000100000100000200000000000000000200000,
100000000000100000000000200000000000000000200000,
#BPMCHANGE 145.4
100000000000100000100000200000000000000000000000,
#BPMCHANGE 146
300000300000000000300000300000000000300000300000,
000000000000000000000000000000000000
#BPMCHANGE 172.5
000000000000,
#GOGOSTART
#BPMCHANGE 146
100000000000200000200000100000000000200000000000,
100000100000200000200000100000000000200000000000,
100000000000200000200000000000100000200000100000,
000000100000200000200000300000000000300000000000,
100000000000200000200000100000000000200000000000,
100000100000200000200000100000000000200000000000,
100000000000200000200000000000100000200000000000,
100000100000200000200000100000000000200000000000,
300000300000000000300000300000000000300000000000,
500000000000000000000000000000000000000000000080,
#GOGOEND
000000000000200000200000000000100000200000000000,
100000000000200000200000000000100000200000000000,
100000000000200000200000000000100000200000000000,
100000000000200000200000100000100000200000000000,
100000000000200000200000000000100000200000000000,
100000000000200000200000000000100000200000000000,
100000000000200000200000000000100000200000100000,
000000200000200000200000100000100000100000000000,
300000300000000000400000400000000000300000300000,
#END
COURSE:Normal
LEVEL:5
BALLOON:6
SCOREINIT:1420
#START
000000000000000000000000000000000000000000000000,
000000000000000000000000000000000000000000000000,
#BPMCHANGE 146.76
000000000000000000000000000000000000000000000000,
#BPMCHANGE 146
100000000000000000000000100000000000000000000000,
100000000000000000000000100000000000100000000000,
100000000000000000000000100000000000000000000000,
100000000000000000000000100000000000100000000000,
100000000000000000000000100000000000000000000000,
100000000000000000000000100000000000100000000000,
100000000000000000000000100000000000000000000000,
700000000000000000000000000000000800000000000000,
#BPMCHANGE 144.9
100000000000100000000000100000000000000000000000,
#BPMCHANGE 146
100000000000100000000000100000000000000000000000,
100000000000000000000000200000000000000000000000,
100000000000000000000000200000000000000000000000,
100000000000100000000000100000000000000000000000,
100000000000100000000000100000000000000000000000,
100000000000000000000000200000000000000000000000,
100000000000000000000000200000000000000000000000,
100000000000100000000000100000000000000000000000,
100000000000100000000000100000000000000000000000,
100000000000100000000000200000000000000000000000,
100000000000100000000000200000000000000000000000,
500000000000000000000000000000000000000000000008,
#BPMCHANGE 147.12
000000000000000000000000000000000000000000000000,
#GOGOSTART
#BPMCHANGE 146
100000000000100000000000200000000000100000100000,
100000000000100000000000100000000000000000000000,
100000000000100000100000000000000000100000100000,
000000000000100000000000200000000000000000000000,
100000000000100000000000200000000000100000100000,
100000000000100000000000100000000000000000000000,
100000000000100000100000000000100000100000000000,
100000000000100000000000200000000000000000000000,
100000000000100000000000200000000000100000100000,
100000000000100000000000100000000000000000000000,
100000000000100000100000000000000000100000100000,
000000000000100000000000200000000000000000000000,
100000000000100000000000200000000000100000100000,
100000000000100000000000100000000000000000000000,
100000000000000000000000200000000000200000000000,
100000000000100000000000200000000000000000000000,
100000000000100000000000200000000000000000000000,
500000000000000000000000000000000000
#BPMCHANGE 159
000000000008,
#GOGOEND
#BPMCHANGE 146
000000000000000000000000200000000000000000000000,
100000000000100000000000200000000000000000000000,
100000000000000000000000200000000000000000000000,
100000000000100000000000200000000000000000000000,
100000000000000000000000200000000000000000000000,
#BPMCHANGE 145.4
100000000000100000000000200000000000000000000000,
#BPMCHANGE 146
300000000000000000300000000000000000500000000000,
000000000000000000000000000000000008
#BPMCHANGE 172.5
000000000000,
#GOGOSTART
#BPMCHANGE 146
100000000000100000000000200000000000100000100000,
100000000000100000000000100000000000000000000000,
100000000000100000100000000000000000100000100000,
000000000000100000000000200000000000000000000000,
100000000000100000000000200000000000100000100000,
100000000000100000000000100000000000000000000000,
100000000000000000000000200000000000200000000000,
100000000000100000000000200000000000000000000000,
100000000000100000000000200000000000200000000000,
500000000000000000000000000000000000000000000008,
#GOGOEND
000000000000000000000000200000000000000000000000,
100000000000100000000000200000000000000000000000,
100000000000000000000000200000000000000000000000,
100000000000100000000000200000000000000000000000,
100000000000000000000000200000000000000000000000,
100000000000100000000000200000000000000000000000,
100000000000100000000000200000000000000000000000,
100000000000100000100000100000000000000000000000,
300000000000000000000000300000000000300000300000,
#END
COURSE:Easy
LEVEL:3
BALLOON:4,6
#START
000000000000000000000000000000000000000000000000,
000000000000000000000000000000000000000000000000,
#BPMCHANGE 146.76
000000000000000000000000000000000000000000000000,
#BPMCHANGE 146
100000000000000000000000100000000000000000000000,
100000000000000000000000000000000000000000000000,
100000000000000000000000100000000000000000000000,
100000000000000000000000000000000000000000000000,
100000000000000000000000100000000000000000000000,
100000000000000000000000000000000000000000000000,
100000000000000000000000100000000000000000000000,
700000000000000000000000000000000800000000000000,
#BPMCHANGE 144.9
100000000000000000000000100000000000000000000000,
#BPMCHANGE 146
100000000000000000000000200000000000000000000000,
100000000000000000000000100000000000000000000000,
100000000000000000000000000000000000000000000000,
100000000000000000000000100000000000000000000000,
100000000000000000000000200000000000000000000000,
100000000000000000000000100000000000000000000000,
100000000000000000000000000000000000000000000000,
100000000000000000000000200000000000000000000000,
100000000000000000000000200000000000000000000000,
300000000000000000000000000000000000000000000000,
300000000000000000000000000000000000000000000000,
500000000000000000000000000000000000000000000008,
#BPMCHANGE 147.12
000000000000000000000000000000000000000000000000,
#GOGOSTART
#BPMCHANGE 146
100000000000000000000000100000000000000000000000,
100000000000000000000000100000000000100000000000,
100000000000000000000000000000000000000000000000,
200000000000200000000000200000000000000000000000,
100000000000000000000000100000000000000000000000,
100000000000000000000000100000000000100000000000,
100000000000000000000000000000000000000000000000,
200000000000200000000000200000000000000000000000,
100000000000000000000000100000000000000000000000,
100000000000000000000000100000000000100000000000,
100000000000000000000000000000000000000000000000,
200000000000200000000000200000000000000000000000,
100000000000000000000000100000000000000000000000,
100000000000000000000000100000000000100000000000,
100000000000000000000000200000000000000000000000,
100000000000000000000000200000000000000000000000,
100000000000000000000000200000000000000000000000,
500000000000000000000000000000000000
#BPMCHANGE 159
000000000008,
#GOGOEND
#BPMCHANGE 146
000000000000000000000000000000000000000000000000,
100000000000100000000000100000000000000000000000,
000000000000000000000000000000000000000000000000,
100000000000100000000000100000000000000000000000,
000000000000000000000000000000000000000000000000,
#BPMCHANGE 145.4
100000000000100000000000100000000000000000000000,
#BPMCHANGE 146
300000000000300000000000300000000000500000000000,
000000000000000000000000000000000008
#BPMCHANGE 172.5
000000000000,
#GOGOSTART
#BPMCHANGE 146
100000000000000000000000100000000000000000000000,
100000000000000000000000100000000000100000000000,
100000000000000000000000000000000000000000000000,
200000000000200000000000200000000000000000000000,
100000000000000000000000100000000000000000000000,
100000000000000000000000100000000000100000000000,
100000000000000000000000200000000000000000000000,
100000000000000000000000200000000000000000000000,
100000000000100000000000100000000000000000000000,
500000000000000000000000000000000000000000000008,
#GOGOEND
000000000000000000000000100000000000000000000000,
100000000000000000000000000000000000000000000000,
100000000000000000000000100000000000000000000000,
100000000000000000000000000000000000000000000000,
100000000000000000000000100000000000000000000000,
100000000000000000000000000000000000000000000000,
100000000000100000000000100000000000000000000000,
100000000000100000000000100000000000000000000000,
700000000000000000000000000000000000000000000008,
#END