forked from ESE/ESE
289 lines
5.0 KiB
Plaintext
289 lines
5.0 KiB
Plaintext
//TJADB Project
|
|
TITLE:Frienger
|
|
TITLEJA:フレンジャー
|
|
SUBTITLE:--Ai Otsuka
|
|
BPM:170
|
|
WAVE:Frienger.ogg
|
|
OFFSET:-1.764
|
|
DEMOSTART:51.828
|
|
|
|
COURSE:Oni
|
|
LEVEL:7
|
|
SCOREINIT:690
|
|
SCOREDIFF:170
|
|
|
|
|
|
#START
|
|
|
|
|
|
12110021,
|
|
12101120,
|
|
12110021,
|
|
12101130,
|
|
12110021,
|
|
12101120,
|
|
12110003,
|
|
00030030,
|
|
1010202010222020,
|
|
1110202010222020,
|
|
1010202011112010,
|
|
1000201110200000,
|
|
1011101110111010,
|
|
0000102011201020,
|
|
1011101110111010,
|
|
0000102011201020,
|
|
1010202010222020,
|
|
1110202010222020,
|
|
1010202011112010,
|
|
1000201110200000,
|
|
1011101110111020,
|
|
0020101120112010,
|
|
1011101110111020,
|
|
0020101120112010,
|
|
10201121,
|
|
01201111,
|
|
1011202010112010,
|
|
1020221000200011,
|
|
1011202010112020,
|
|
11200220,
|
|
1011202010112010,
|
|
1020202022100011,
|
|
1011101110112020,
|
|
10200202,
|
|
10101111,
|
|
03300000,
|
|
|
|
#GOGOSTART
|
|
1011201110112010,
|
|
0011202010112000,
|
|
1011201011102011,
|
|
1010200010111010,
|
|
1011201110112010,
|
|
0011202010112000,
|
|
1011201011102011,
|
|
1010200010111010,
|
|
1011201110112010,
|
|
0011202010112000,
|
|
1011201011102011,
|
|
1010200010111010,
|
|
1011201110112010,
|
|
0011202010112000,
|
|
10201123,
|
|
03033030,
|
|
|
|
#GOGOEND
|
|
|
|
|
|
#END
|
|
|
|
|
|
COURSE:Hard
|
|
LEVEL:5
|
|
SCOREINIT:960
|
|
SCOREDIFF:240
|
|
|
|
|
|
#START
|
|
|
|
|
|
10220010,
|
|
22001210,
|
|
10220010,
|
|
22001130,
|
|
10220010,
|
|
22001210,
|
|
10220003,
|
|
00030030,
|
|
10201120,
|
|
10201200,
|
|
10201120,
|
|
10201200,
|
|
10001011,
|
|
00111010,
|
|
10001011,
|
|
00111111,
|
|
10201120,
|
|
10201200,
|
|
10201120,
|
|
10210200,
|
|
10001011,
|
|
00111010,
|
|
10001011,
|
|
00111010,
|
|
10210021,
|
|
01201111,
|
|
10221022,
|
|
10210200,
|
|
11221021,
|
|
00000220,
|
|
10221022,
|
|
10210200,
|
|
1222,
|
|
10200105,
|
|
000000000000000000000000000000000008000000300000,
|
|
03300000,
|
|
|
|
#GOGOSTART
|
|
11201021,
|
|
02202011,
|
|
10201121,
|
|
00001110,
|
|
11201021,
|
|
02202011,
|
|
10201121,
|
|
00001110,
|
|
11201021,
|
|
02202011,
|
|
10201121,
|
|
00001110,
|
|
11201021,
|
|
02202011,
|
|
10221103,
|
|
03033030,
|
|
|
|
#GOGOEND
|
|
|
|
|
|
#END
|
|
|
|
|
|
COURSE:Normal
|
|
LEVEL:5
|
|
SCOREINIT:1200
|
|
SCOREDIFF:400
|
|
|
|
|
|
#START
|
|
|
|
|
|
1001,
|
|
00001110,
|
|
1001,
|
|
00001130,
|
|
1001,
|
|
00001110,
|
|
10000003,
|
|
,
|
|
11,
|
|
1110,
|
|
11,
|
|
1110,
|
|
10001001,
|
|
0111,
|
|
10001001,
|
|
0222,
|
|
11,
|
|
1110,
|
|
12,
|
|
1110,
|
|
10001001,
|
|
0111,
|
|
10001001,
|
|
0222,
|
|
500000000000000000000000000000000000000008000000,
|
|
,
|
|
1212,
|
|
1210,
|
|
11101050,
|
|
000000000000000000000000000008000000000000000000,
|
|
1212,
|
|
1210,
|
|
1111,
|
|
1100,
|
|
500000000000000000000000000008000000000000300000,
|
|
03300000,
|
|
|
|
#GOGOSTART
|
|
11101001,
|
|
00000011,
|
|
10101001,
|
|
,
|
|
11101002,
|
|
00000011,
|
|
10101001,
|
|
,
|
|
11101001,
|
|
00000011,
|
|
10101002,
|
|
,
|
|
11101001,
|
|
00000011,
|
|
10201003,
|
|
03033030,
|
|
|
|
#GOGOEND
|
|
|
|
|
|
#END
|
|
|
|
|
|
COURSE:Easy
|
|
LEVEL:4
|
|
BALLOON:8,5,5
|
|
SCOREINIT:1090
|
|
SCOREDIFF:550
|
|
|
|
|
|
#START
|
|
|
|
|
|
100000000000000000000000000000000000100000000000,
|
|
000000000000000000000000100000000000100000000000,
|
|
100000000000000000000000000000000000100000000000,
|
|
000000000000000000000000000000000000300000000000,
|
|
100000000000000000000000000000000000100000000000,
|
|
000000000000000000000000100000000000100000000000,
|
|
100000000000000000000000000000000000000000100000,
|
|
000000000000000000000000000000000000000000000000,
|
|
100000000000000000000000100000000000000000000000,
|
|
100000000000000000000000000000000000000000000000,
|
|
100000000000000000000000100000000000000000000000,
|
|
100000000000000000000000000000000000000000000000,
|
|
100000000000000000000000100000000000100000000000,
|
|
000000000000100000000000100000000000000000000000,
|
|
100000000000000000000000200000000000200000000000,
|
|
000000000000100000000000100000000000000000000000,
|
|
100000000000000000000000100000000000000000000000,
|
|
200000000000000000000000000000000000000000000000,
|
|
100000000000000000000000100000000000000000000000,
|
|
200000000000000000000000000000000000000000000000,
|
|
100000000000000000000000100000000000100000000000,
|
|
000000000000100000000000100000000000000000000000,
|
|
100000000000000000000000200000000000200000000000,
|
|
000000000000100000000000100000000000000000000000,
|
|
500000000000000000000000000000000000800000000000,
|
|
000000000000000000000000000000000000000000000000,
|
|
100000000000100000000000100000000000000000000000,
|
|
100000000000100000000000100000000000000000000000,
|
|
100000000000000000000000200000000000000000000000,
|
|
100000000000000000000000200000000000000000000000,
|
|
100000000000100000000000100000000000000000000000,
|
|
200000000000200000000000200000000000000000500000,
|
|
000000000000000000000000000000000000000000000000,
|
|
000000800000000000000000000000000000000000900000,
|
|
0008,
|
|
,
|
|
|
|
#GOGOSTART
|
|
100000000000000000000000100000000000000000500000,
|
|
000000000000000000000000800000000000000000000000,
|
|
100000000000100000000000100000000000000000100000,
|
|
000000000000000000000000000000000000000000000000,
|
|
100000000000000000000000100000000000000000700000,
|
|
08,
|
|
100000000000000000000000100000000000000000100000,
|
|
000000000000000000000000100000000000100000000000,
|
|
100000000000000000000000100000000000000000500000,
|
|
000000000000000000000000800000000000000000000000,
|
|
100000000000000000000000100000000000000000200000,
|
|
000000000000000000000000100000000000100000000000,
|
|
100000000000000000000000100000000000000000700000,
|
|
08,
|
|
100000000000200000000000100000000000000000000000,
|
|
000000000000000000000000000000000000300000000000,
|
|
#GOGOEND
|
|
|
|
|
|
#END
|
|
|