Files
ESE-ja-fix/01 Pop/GAT-TAI/GAT-TAI.tja
T
2023-01-17 00:45:18 -05:00

288 lines
9.8 KiB
Plaintext

//TJADB Project
TITLE:GAT-TAI
TITLEJA:GAT-TAI
SUBTITLE:--Yugo Kanno feat. Daisuke Hasegawa/Ninja Batman
SUBTITLEJA:映画「ニンジャバットマン」より
BPM:120
WAVE:GAT-TAI.ogg
OFFSET:-0.459
DEMOSTART:73.054
COURSE:Oni
LEVEL:7
BALLOON:60,50,5
SCOREINIT:850
SCOREDIFF:200
#START
#SCROLL 1.06
700000000000000000000000000000000000000000000000,
000000000000000000000000000000000000000000000000,
0008,
000000000000000000000000000000000000000000000000,
300000000000600000000000000000000000000000000000,
000000000000000000000000000000000000000000000000,
000000000000000000000000000000000008000000000000,
000000000000000000000000000000000000000000000000,
300000000000000000000000000000700000000000000000,
000000000000000000000000000000000000000000000000,
#BPMCHANGE 122
#SCROLL 1.04
000000000000000000000000000000000000800000000000,
#BPMCHANGE 128
#SCROLL 1
200000100100100000200200100100000200200000100000,
000000200000200000200000100000100000200200200000,
100100100000000000200200200000100000100000100000,
100100100100100000200200200000200000200000200200,
100100100100100000100100200000100000200000200200,
100100100100100000100100200000100000200000000000,
#GOGOSTART
300000400000300000400000300000400000300000400000,
300000400000300000400000600000000000000008000000,
#GOGOEND
100000100100200000100000100000100100100000000000,
100000100100200000100000100000100100200000000000,
100000100200000100200000100200000200100000200000,
300000000000300000000000400000400000400000400000,
100000100100200000100000200200000200200000100000,
400000000000400000000000100100100000100100100000,
000000100000200000100000200200100100200000200000,
000000200200100000100000200200100100200000200000,
300000200200200000200000100000100100200000200000,
300000000000300000000000200200200000200200200000,
000000100100100000100000200000100100200000100000,
400000000000400000000000300000300000300000300000,
#GOGOSTART
000000300000400000300000100100100100100000100100,
000000400000300000400000100200200200100000100100,
000000300000400000300000100100100100100000100100,
000000400000300000400000100200200200100000100100,
000000300000300000300000400000000000400000000000,
100100200200100100200200100100100100100100200200,
#GOGOEND
100000000000000000000000700000000000800000000000,
100000200200100000200000100000100100200000200000,
100000200200100000200200100100000100200000100000,
100000200200100000200000100000100100200000200000,
100100200200100000200200100100000100200000100000,
100100200200100200200100100100200100200000100000,
400000000000000000000000000000000000000000000000,
#END
COURSE:Hard
LEVEL:6
BALLOON:50,40,5
SCOREINIT:1010
SCOREDIFF:250
#START
#SCROLL 1.06
700000000000000000000000000000000000000000000000,
000000000000000000000000000000000000000000000000,
000000000000000000000000000000000008000000000000,
000000000000000000000000000000000000000000000000,
300000000000600000000000000000000000000000000000,
000000000000000000000000000000000000000000000000,
000000000000000000000000000000000080000000000000,
000000000000000000000000000000000000000000000000,
300000000000000000000000000000700000000000000000,
000000000000000000000000000000000000000000000000,
#BPMCHANGE 122
#SCROLL 1.04
000000000000000000000000000000000008000000000000,
#BPMCHANGE 128
#SCROLL 1
000000100000100000000000100000000200000000100000,
000000200000200000200000100000100000100100100000,
100000100000000000000000000000200000200000200000,
100100100000100000000000000000000000000000500000,
000000000000000080000000200000000000200000500000,
000000000000000080000000200000000000200000000000,
#GOGOSTART
300000300000300000300000300000300000300000300000,
300000300000300000300000600000000080000000000000,
#GOGOEND
100000100000200000200000100000100000200000000000,
200000200000100000100000200000200000100000000000,
000000100000000100000000200000000200000000200000,
300000000000300000000000400000000000400000000000,
000000200000000000200000100000000100000000100000,
400000000000400000000000300000000000300000000000,
000000100000100000100000200000200000200000200000,
000000100100100000100000200000200000200000200000,
000000100000100000000000100000100000200000200000,
300000000000300000000000400000000000400000000000,
000000100000100000000000100000000100000000100000,
400000000000400000000000300000000000300000000000,
#GOGOSTART
000000300000300000300000100100100000100100100000,
000000400000400000400000100100100000100100100000,
000000300000300000300000100100100000100100100000,
000000400000400000400000100100100000100100100000,
000000300000300000300000400000000000400000000000,
600000000000000000000000000000000080000000000000,
#GOGOEND
300000000000000000000000700000000008000000000000,
100000200000100000000000100000200000100000000000,
100000100000200000200000100100100000200000000000,
100000200000100000000000100000200000100000000000,
100100100000200000200000100100100000200000200000,
100100100000100100100000100100100000100100100000,
400000000000000000000000000000000000000000000000,
#END
COURSE:Normal
LEVEL:5
BALLOON:39,30,3
SCOREINIT:1230
SCOREDIFF:370
#START
#SCROLL 1.06
700000000000000000000000000000000000000000000000,
000000000000000000000000000000000000000000000000,
000000000000000000000000000000000008000000000000,
000000000000000000000000000000000000000000000000,
300000000000600000000000000000000000000000000000,
000000000000000000000000000000000000000000000000,
000000000000000000000000000000000080000000000000,
000000000000000000000000000000000000000000000000,
300000000000000000000000000000700000000000000000,
000000000000000000000000000000000000000000000000,
#BPMCHANGE 122
#SCROLL 1.04
000000000000000000000000000000000008000000000000,
#BPMCHANGE 128
#SCROLL 1
100000000000100000000000100000000000100000100000,
000000100000100000000000100000000000100000100000,
100000000000100000000000100000000000100000100000,
000000100000100000000000000000000000000000500000,
000000000000000080000000000000000000000000500000,
000000000000000080000000000000000000000000000000,
#GOGOSTART
300000000000300000000000300000000000300000000000,
300000000000300000000000600000000080000000000000,
#GOGOEND
000000100000100000100000100000000000100000000000,
000000100000100000100000100000000000100000000000,
000000500000000000000000000000000080000000000000,
300000000000300000000000300000000000000000000000,
000000500000000000000000000000000080000000000000,
400000000000400000000000400000000000000000000000,
100000100000100000000000100000000000100000000000,
100000100000100000000000100000000000100000000000,
100000100000100000000000100000100000100000000000,
300000000000300000000000400000000000000000000000,
100000100000100000000000100000100000100000000000,
400000000000400000000000300000000000000000000000,
#GOGOSTART
000000300000300000300000600000000000000080000000,
000000400000400000400000600000000000000080000000,
000000300000300000300000600000000000000080000000,
000000400000400000400000600000000000000080000000,
000000300000300000300000300000000000400000000000,
600000000000000000000000000000000080000000000000,
#GOGOEND
300000000000000000000000700000000008000000000000,
100000000000100000000000100000200000100000000000,
100000000000100000000000100000200000100000000000,
100000100000100000000000100000200000100000000000,
100000100000100000000000100000200000100000000000,
600000000000000000000000000000000080000000000000,
400000000000000000000000000000000000000000000000,
#END
COURSE:Easy
LEVEL:4
BALLOON:30,24,3
SCOREINIT:940
SCOREDIFF:360
#START
#SCROLL 1.06
700000000000000000000000000000000000000000000000,
000000000000000000000000000000000000000000000000,
000000000000000000000000000000000008000000000000,
000000000000000000000000000000000000000000000000,
300000000000600000000000000000000000000000000000,
000000000000000000000000000000000000000000000000,
000000000000000000000000000000000080000000000000,
000000000000000000000000000000000000000000000000,
300000000000000000000000000000700000000000000000,
000000000000000000000000000000000000000000000000,
#BPMCHANGE 122
#SCROLL 1.04
000000000000000000000000000000000008000000000000,
#BPMCHANGE 128
#SCROLL 1
100000000000100000000000000000000000100000000000,
100000000000100000000000000000000000100000000000,
100000000000100000000000000000000000100000000000,
100000000000100000000000000000000000000000000000,
500000000000000080000000000000000000000000000000,
500000000000000080000000000000000000000000000000,
#GOGOSTART
300000000000300000000000300000000000300000000000,
300000000000300000000000600000000080000000000000,
#GOGOEND
300000000000000000000000100000000000100000000000,
000000000000000000000000100000000000100000000000,
000000000000000000000000100000000000100000000000,
300000000000300000000000300000000000000000000000,
200000000000000000000000200000000000200000000000,
400000000000400000000000400000000000000000000000,
100000000000000000000000100000000000100000000000,
000000000000000000000000100000000000100000000000,
300000000000000000000000100000000000100000000000,
300000000000300000000000300000000000000000000000,
200000000000000000000000200000000000200000000000,
400000000000400000000000400000000000000000000000,
#GOGOSTART
300000000000300000000000000000000000000000000000,
400000000000400000000000000000000000000000000000,
300000000000300000000000000000000000000000000000,
400000000000400000000000000000000000000000000000,
300000000000300000000000400000000000400000000000,
600000000000000000000000000000000080000000000000,
#GOGOEND
300000000000000000000000700000000008000000000000,
#GOGOSTART
100000000000100000000000200000000000000000000000,
100000000000100000000000200000000000000000000000,
100000000000100000000000200000000000200000000000,
100000000000100000000000200000000000200000000000,
600000000000000000000000000000000080000000000000,
#GOGOEND
400000000000000000000000000000000000000000000000,
#END