forked from ESE/ESE
307 lines
12 KiB
Plaintext
307 lines
12 KiB
Plaintext
//TJADB Project
|
|
TITLE:Ge Zhong Qiang Shou
|
|
TITLEJA:箇中強手
|
|
SUBTITLE:--Show Lo
|
|
BPM:115
|
|
WAVE:Ge Zhong Qiang Shou.ogg
|
|
OFFSET:-2.250
|
|
DEMOSTART:79.467
|
|
|
|
COURSE:Oni
|
|
LEVEL:7
|
|
SCOREINIT:700
|
|
SCOREDIFF:170
|
|
|
|
|
|
#START
|
|
|
|
|
|
100000000000000000000000000000000000000000000000,
|
|
100000000000000000000000000000000000000000100000,
|
|
100000000000000000000000000000000000000000000000,
|
|
100000000000000000100000100200100000100200100000,
|
|
100000000000200000000200000000100000200100200000,
|
|
200000000000200000000200000000100000200100200000,
|
|
200000000000200000000200000000100000200000100000,
|
|
100000200000100000200000100200100000100200100000,
|
|
100000000000200000000200000000100000200200100000,
|
|
200000000000200000000200000000100000200200100000,
|
|
200000000000200000000200000000100000200000100000,
|
|
100000200000100000200000100200100000100200100000,
|
|
100000000000200000000000200000100200000000400000,
|
|
300000000000200000000000200000100200000000400000,
|
|
300000000000200000000000200000100200000000200000,
|
|
100000000000100000000000100000200000100000200000,
|
|
100200000200100000200000100000200100000100200000,
|
|
100200000200100000200000100000200100000100200000,
|
|
300000000000400000000000100000100000400000000000,
|
|
100000000000100000000000100000200000100000200000,
|
|
100000000100200000100000100000200100000100200000,
|
|
100000000100200000100000100000200100000100200000,
|
|
300000000000400000000000100000100000400000000000,
|
|
100000000000100000000000100000100000100200100000,
|
|
100000000000200000000200000200100000100000100000,
|
|
100000000000200000000200000200100000100000100000,
|
|
100000000000200000000200000200100000100000100000,
|
|
100000000000100000000000100000200000100000200000,
|
|
100000000000200000000000000000200000000000100000,
|
|
100000000000200000000000000000200000000000100000,
|
|
100000000000200000000000000000200000000000100000,
|
|
100000000000200000000000000000200000200200100000,
|
|
100000000000200000000000200000200000000000200000,
|
|
100000000000200000000000200000100000200000100000,
|
|
100000000000200000000000200000200000000000200000,
|
|
100000100000100100100000100100100000100100100000,
|
|
300000000000000000000000000000000000000000000000,
|
|
|
|
#GOGOSTART
|
|
100000200000100100000200100000100100000200200000,
|
|
100000200000100100000100100000200100000100100000,
|
|
300000000000300000000000300000000000300000000000,
|
|
100200100000200200100000100200100000200200100000,
|
|
100000200000100100000200100000100100000200200000,
|
|
100000200000100100000100100000200100000100100000,
|
|
300000000000300000000000300000000000300000000000,
|
|
100200100000200200100000100200100000200200100000,
|
|
100000200000100200000200100000100200000200200000,
|
|
100000200000100200000100100000200100000100200000,
|
|
300000000000300000000000300000000000300000000000,
|
|
100200100000200200100000100200100000200200100000,
|
|
100000200000100200000200100000100200000200200000,
|
|
100000200000100200000200100000200100000100200000,
|
|
300000000000300000000000300000000000300000000000,
|
|
100200100000200200100000100200100000200200100000,
|
|
|
|
#GOGOEND
|
|
300000000000200000000000000000100000000000300000,
|
|
300000000000200000000000000000100000000000300000,
|
|
300000000000200000000000000000100000000000100000,
|
|
100000000000000000100000000000000000100000100000,
|
|
300000000000000000000000000000000000000000000000,
|
|
|
|
|
|
#END
|
|
|
|
|
|
COURSE:Hard
|
|
LEVEL:4
|
|
SCOREINIT:760
|
|
SCOREDIFF:190
|
|
|
|
|
|
#START
|
|
|
|
|
|
100000000000000000000000000000000000000000000000,
|
|
100000000000000000000000000000000000000000100000,
|
|
100000000000000000000000000000000000000000000000,
|
|
100000000000000000100000100000000000100000000000,
|
|
100000000000200000000000000000100000000000100000,
|
|
100000000000200000000000000000100000000000100000,
|
|
100000000000200000000000000000100000000000100000,
|
|
100000000000100000000000100000100000100000000000,
|
|
100000000000200000000000000000100000000000100000,
|
|
100000000000200000000000000000100000000000100000,
|
|
100000000000200000000000000000100000000000100000,
|
|
100000000000100000000000100000100000100000000000,
|
|
100000000000200000000000200000200000000000100000,
|
|
100000000000200000000000200000200000000000100000,
|
|
100000000000200000000000200000200000000000100000,
|
|
100000000000100000000000100000100000100000000000,
|
|
300000000000200000000000100000100100000000100000,
|
|
100000000000200000000000100000100100000000100000,
|
|
100000000000200000000000100000100000200000000000,
|
|
100000000000100000000000100000000000100000000000,
|
|
100000000000200000000000100000100100000000100000,
|
|
100000000000200000000000100000100100000000100000,
|
|
100000000000200000000000100000100000200000000000,
|
|
100000000000100000000000100000000000100000000000,
|
|
100000000000200000000200000000100000000000100000,
|
|
100000000000200000000200000000100000000000100000,
|
|
100000000000200000000200000000100000000000100000,
|
|
100000000000100000000000100000100000100000000000,
|
|
100000000000200000000000000000200000000000100000,
|
|
100000000000200000000000000000200000000000100000,
|
|
100000000000200000000000000000200000000000100000,
|
|
100000000000200000000000000000200000200000100000,
|
|
100000000000200000200000000000200000000000200000,
|
|
100000000000200000200000000000200000000000200000,
|
|
100000000000200000200000000000200000000000200000,
|
|
100000100000100000100000100000100000100000100000,
|
|
300000000000000000000000000000000000000000000000,
|
|
#GOGOSTART
|
|
200000000200200000000100100000100100000000100000,
|
|
100000200000200000000000100000100100000000100000,
|
|
100000000000200000000000100000100000200000000000,
|
|
100000000000100000000000100000100000100000000000,
|
|
200000000200200000000100100000100100000000100000,
|
|
100000100000200000000000100000100100000000100000,
|
|
100000000000200000000000100000100000200000000000,
|
|
100000000000100000000000100000100000100000000000,
|
|
200000000200200000000000100000200200000000200000,
|
|
000000200000200000000000100000200200000000200000,
|
|
100000000000200000000000100000100000200000000000,
|
|
100000000000100000000000100000100000100000000000,
|
|
200000000200200000000000100000200200000000200000,
|
|
000000200000200000000000100000200200000000200000,
|
|
100000000000200000000000100000100000200000000000,
|
|
100000000000100000000000100000100000100000000000,
|
|
#GOGOEND
|
|
300000000000000000000000000000100000000000300000,
|
|
300000000000000000000000000000100000000000300000,
|
|
300000000000000000000000000000100000000000100000,
|
|
100000000000000000100000000000000000100000100000,
|
|
300000000000000000000000000000000000000000000000,
|
|
|
|
|
|
#END
|
|
|
|
|
|
COURSE:Normal
|
|
LEVEL:4
|
|
SCOREINIT:770
|
|
SCOREDIFF:220
|
|
|
|
|
|
#START
|
|
|
|
|
|
100000000000000000000000000000000000000000000000,
|
|
100000000000000000000000000000000000000000100000,
|
|
100000000000000000000000000000000000000000000000,
|
|
100000000000000000100000000000000000100000000000,
|
|
100000000000200000000000000000100000000000000000,
|
|
100000000000200000000000000000100000000000000000,
|
|
100000000000200000000000000000100000000000000000,
|
|
100000000000100000000000100000100000100000000000,
|
|
100000000000200000000000000000100000000000000000,
|
|
100000000000200000000000000000100000000000000000,
|
|
100000000000200000000000000000100000000000000000,
|
|
100000000000100000000000100000100000100000000000,
|
|
100000000000200000000000200000000000000000000000,
|
|
100000000000200000000000200000000000000000000000,
|
|
100000000000200000000000200000000000000000000000,
|
|
100000000000000000000000000000000000000000000000,
|
|
100000000000200000000000100000000100000000000000,
|
|
100000000000200000000000100000000100000000000000,
|
|
100000000000100000000000100000100000100000000000,
|
|
100000000000100000000000100000000000000000000000,
|
|
100000000000200000000000100000000100000000000000,
|
|
100000000000200000000000100000000100000000000000,
|
|
100000000000100000000000100000100000100000000000,
|
|
100000000000000000000000000000100000000000100000,
|
|
100000000000200000000000000000100000000000100000,
|
|
100000000000200000000000000000100000000000100000,
|
|
100000000000200000000000000000100000000000100000,
|
|
100000000000100000000000100000000000100000000000,
|
|
100000000000000000000000000000200000000000100000,
|
|
100000000000000000000000000000200000000000100000,
|
|
100000000000000000000000000000200000000000100000,
|
|
100000000000000000000000000000200000000000100000,
|
|
100000000000200000000000000000200000000000100000,
|
|
100000000000200000000000000000200000000000100000,
|
|
100000000000200000000000000000200000000000100000,
|
|
100000000000100000000000100000100000100000000000,
|
|
300000000000000000000000000000000000000000000000,
|
|
#GOGOSTART
|
|
200000200000200000000000100000000100000000000000,
|
|
200000200000200000000000100000000100000000000000,
|
|
100000000000200000000000100000100000100000000000,
|
|
100000000000100000000000100000000000000000000000,
|
|
200000200000200000000000100000000100000000000000,
|
|
200000200000200000000000100000000100000000000000,
|
|
100000000000200000000000100000100000100000000000,
|
|
100000000000100000000000100000000000000000000000,
|
|
200000200000200000000000100000000100000000000000,
|
|
200000200000200000000000100000000100000000000000,
|
|
100000000000200000000000200000200000200000000000,
|
|
100000000000100000000000100000000000000000000000,
|
|
400000000000400000000000100000000100000000000000,
|
|
100000100000100000000000100000000100000000000000,
|
|
100000000000200000000000200000200000200000000000,
|
|
100000000000100000000000100000000000000000000000,
|
|
#GOGOEND
|
|
300000000000000000000000000000100000000000100000,
|
|
100000000000000000000000000000100000000000100000,
|
|
100000000000000000000000000000100000000000000000,
|
|
100000000000000000100000000000000000100000000000,
|
|
300000000000000000000000000000000000000000000000,
|
|
|
|
|
|
#END
|
|
|
|
|
|
COURSE:Easy
|
|
LEVEL:3
|
|
SCOREINIT:790
|
|
SCOREDIFF:270
|
|
|
|
|
|
#START
|
|
|
|
|
|
100000000000000000000000000000000000000000000000,
|
|
100000000000000000000000000000000000000000100000,
|
|
100000000000000000000000000000000000000000000000,
|
|
100000000000000000000000000000000000000000000000,
|
|
100000000000200000000000000000000000000000000000,
|
|
100000000000200000000000000000000000000000000000,
|
|
100000000000200000000000000000000000000000000000,
|
|
100000000000100000000000100000000000000000000000,
|
|
100000000000200000000000000000000000000000000000,
|
|
100000000000200000000000000000000000000000000000,
|
|
100000000000200000000000000000000000000000000000,
|
|
100000000000100000000000100000000000000000000000,
|
|
200000000000000000000000000000000000000000000000,
|
|
200000000000000000000000000000000000000000000000,
|
|
200000000000000000000000000000000000000000000000,
|
|
100000000000100000000000100000000000000000000000,
|
|
000000000000200000000000000000000000200000000000,
|
|
000000000000200000000000000000000000200000000000,
|
|
100000000000100000000000100000000000000000000000,
|
|
100000000000000000000000100000000000000000000000,
|
|
000000000000200000000000000000000000200000000000,
|
|
000000000000200000000000000000000000200000000000,
|
|
100000000000100000000000100000000000000000000000,
|
|
100000000000000000000000000000000000000000000000,
|
|
300000000000000000000000000000000000000000000000,
|
|
100000000000000000000000000000000000000000000000,
|
|
100000000000000000000000000000000000000000000000,
|
|
300000000000300000000000300000000000000000000000,
|
|
100000000000000000000000200000000000000000000000,
|
|
100000000000000000000000200000000000000000000000,
|
|
100000000000000000000000200000000000000000000000,
|
|
100000000000000000000000200000000000200000000000,
|
|
100000000000000000000000200000000000000000000000,
|
|
100000000000000000000000200000000000000000000000,
|
|
100000000000000000000000200000000000000000000000,
|
|
100000000000100000000000100000000000000000000000,
|
|
300000000000000000000000000000000000000000000000,
|
|
#GOGOSTART
|
|
200000000000200000000000000000000000200000000000,
|
|
200000000000200000000000000000000000200000000000,
|
|
100000000000100000000000100000000000000000000000,
|
|
100000000000000000000000100000000000000000000000,
|
|
200000000000200000000000000000000000200000000000,
|
|
200000000000200000000000000000000000200000000000,
|
|
100000000000100000000000100000000000000000000000,
|
|
100000000000000000000000100000000000000000000000,
|
|
200000000000200000000000000000000000200000000000,
|
|
200000000000200000000000000000000000200000000000,
|
|
300000000000300000000000300000000000000000000000,
|
|
500000000000000000000000800000000000000000000000,
|
|
200000000000200000000000000000000000200000000000,
|
|
200000000000200000000000000000000000200000000000,
|
|
300000000000300000000000300000000000000000000000,
|
|
500000000000000000000000800000000000000000000000,
|
|
#GOGOEND
|
|
100000000000000000000000000000000000000000000000,
|
|
100000000000000000000000000000000000000000000000,
|
|
100000000000000000000000000000000000000000000000,
|
|
100000000000000000000000100000000000100000000000,
|
|
300000000000000000000000000000000000000000000000,
|
|
|
|
|
|
#END
|
|
|