Files
ESE-ja-fix/01 Pop/Haruka/Haruka.tja
T
2023-01-17 00:45:18 -05:00

262 lines
8.8 KiB
Plaintext

//TJADB Project
TITLE:Haruka
TITLEJA:遥か
SUBTITLE:--GReeeeN/ROOKIES -Graduation-
SUBTITLEJA:映画「ROOKIES-卒業-」主題歌
BPM:84
WAVE:Haruka.ogg
OFFSET:-3.000
DEMOSTART:75.619
COURSE:Oni
LEVEL:5
BALLOON:15,17,17
SCOREINIT:830
SCOREDIFF:210
#START
100000000100200000000000100100100000200000000000,
100000000100200000000000100100100000200000100000,
100000000100200000000000100100100000200000000000,
100000200000100000200000100100100000200000000000,
100100100000200000000000100100100000200000000000,
100000200000100000200000100100100000200000000000,
100100100000200000100000100100100000200000100000,
100000200000100000200000100100100000100000000000,
100000000100200000000100100000100000200000000000,
100000000100200000000100100000100000200000000000,
100000000100200000000100100000100000200000000000,
100000000100200000000100100000100000200000000000,
100000200000100000200000100100100000200000000000,
100000200000100100200000100000000000200000000000,
100100100000200000100000100100100000200000100000,
700000000000000000000000000000800000000000000000,
100000200000100100200000100000000000200000000000,
100000200000100100100000200000000000000000000000,
100000200000100100100000100000000000200000000000,
100100100000200200200000500000000008000000000000,
100000200000100100100000100000000000200000000000,
100000200000100100100000200000000000000000000000,
200200200000100100100000100000000000200000000000,
#MEASURE 2/4
100100100000200200200000,
#MEASURE 4/4
700000000000000000000000000000000000000000000800,
000000000000000000000100100000100100000100000000,
#GOGOSTART
100000000100200000100000100200100000200000000000,
100000000100200000100000100200100000200000000000,
100000000100200000100000100200100000200000000000,
100000000100200000100000100100200100200000000000,
100100100000200000000000100100100000200000000000,
100100200200100100200200100000000000200000000000,
100100100000200000100000100100100000200000100000,
700000000000000000000000000000000000000000800000,
100200000100100100200000200000100200200000000000,
100200000200200100200000100200000100200000000000,
200100000100200100100000200100000200100000000000,
100200000100200000100000500000000008000000000000,
100200000100100100200000200000100200200000000000,
100200000200200100200000100200000100200000000000,
200100000100200100100000200100000200100000000000,
100100100000200000100000300000000000000000000000,
#GOGOEND
#END
COURSE:Hard
LEVEL:4
BALLOON:15,17,15
SCOREINIT:870
SCOREDIFF:220
#START
100000000000200000000000100000100000200000000000,
100000000000200000000000100000100000200000000000,
100000000000200000000000100000100000200000000000,
100000000000200000000000100100100000200000000000,
100000000000200000000000100000000000200000000000,
100000200000100000200000100000000000200000000000,
100000100000200000000000100000100000200000000000,
100000200000100000200000100100100000100000000000,
100000000000200000000000100000100000200000000000,
100000000000200000000000100000100000200000000000,
100000000000200000000000100000100000200000000000,
100000000000200000000000100100100000200000000000,
100000000000200000000000100000000000200000000000,
100000200000200000200200200000000000000000000000,
100000100000200000000000100100100000200000000000,
700000000000000000000800000000000000000000000000,
100000100000200000200000200000000000200000000000,
100000100000200000200000200000000000000000000000,
200200200000200000100000200000000000200000000000,
100000100000200000200200200000000000000000000000,
100000100000200200200000200000000000200000000000,
100000100000200200200000200000000000000000000000,
200200200000100000100000200000000000200000000000,
#MEASURE 2/4
100000100000200200200000,
#MEASURE 4/4
90000008,
,
#GOGOSTART
100000000000200000000000100100100000200000000000,
100100100000200000100000100100100000200000000000,
100000000000200000000000100100100000200000000000,
100100100000200000100000100100100000200000000000,
100000000000200000000000100100100000200000000000,
100000200000100000200000100100100000200000000000,
100000100000200000000000100100100000200000000000,
7008,
300000000000200000100000100000000000400000000000,
300000000000200000100000100000000000400000000000,
100000000000200000100000100000000000400000000000,
100000100000200200200000200000000000000000000000,
100000100000200000000000300000000000400000000000,
100000100000200000000000300000000000400000000000,
200000200000200000000000400000000000300000000000,
100000100000200000100000300000000000000000000000,
#GOGOEND
#END
COURSE:Normal
LEVEL:3
BALLOON:12,14
SCOREINIT:960
SCOREDIFF:260
#START
100000000000200000000000000000000000200000000000,
100000000000200000000000000000000000200000000000,
100000000000200000000000000000000000200000000000,
100000000000100000000000100000100000100000000000,
100000000000200000000000100000000000200000000000,
100000000000200000000000200000000000000000000000,
100000000000200000000000100000000000200000000000,
100000000000100000100000100000000000000000000000,
100000000000200000000000000000000000200000000000,
100000000000200000000000000000000000200000000000,
100000000000200000000000000000000000200000000000,
100000000000100000000000100000100000100000000000,
100000000000000000000000100000000000000000000000,
100000000000200000200000200000000000000000000000,
100000000000000000000000200000000000000000000000,
700000000000000000000000000000000000800000000000,
100000000000100000100000100000000000000000000000,
100000000000100000100000100000000000000000000000,
200000000000200000200000200000000000000000000000,
200000000000200000200000200000000000000000000000,
100000100000100000000000100000000000000000000000,
100000100000100000000000100000000000000000000000,
200000200000200000000000200000000000000000000000,
#MEASURE 2/4
100000100000100000000000,
#MEASURE 4/4
90000008,
,
#GOGOSTART
300000000000300000000000600000000000000000800000,
000000000000000000000000000000000000000000000000,
300000000000300000000000600000000000800000000000,
000000000000000000000000100000100000100000000000,
300000000000400000000000300000000000400000000000,
200000200000200000000000200000000000000000000000,
100000100000100000000000100000000000100000000000,
500000000000000000000000000000000008000000000000,
300000000000100000100000100000000000200000000000,
300000000000100000100000100000000000200000000000,
300000000000100000100000100000000000200000000000,
400000000000200000200000200000000000000000000000,
100000100000100000000000300000000000200000000000,
100000100000100000000000300000000000200000000000,
200000200000200000000000400000000000200000000000,
100000100000100000000000300000000000000000000000,
000000000000000000000000000000000000000000000000,
#GOGOEND
#END
COURSE:Easy
LEVEL:2
BALLOON:8,10,10
SCOREINIT:800
SCOREDIFF:250
#START
100000000000000000000000100000000000000000000000,
100000000000000000000000000000000000000000000000,
100000000000000000000000100000000000000000000000,
100000000000100000000000100000000000000000000000,
100000000000000000000000100000000000000000000000,
100000000000100000000000100000000000000000000000,
100000000000000000000000100000000000000000000000,
100000000000100000000000100000000000000000000000,
300000000000000000000000100000000000000000000000,
100000000000100000000000100000000000000000000000,
100000000000000000000000100000000000000000000000,
100000000000100000000000100000000000000000000000,
100000000000000000000000100000000000000000000000,
100000000000100000000000100000000000000000000000,
100000000000000000000000100000000000000000000000,
700000000000000000000000800000000000000000000000,
100000000000100000000000100000000000000000000000,
100000000000100000000000100000000000000000000000,
200000000000200000000000200000000000000000000000,
200000000000200000000000200000000000000000000000,
100000000000100000000000100000000000000000000000,
100000000000100000000000100000000000000000000000,
200000000000200000000000200000000000000000000000,
#MEASURE 2/4
100000000000100000000000,
000000000000000000000000,
#MEASURE 4/4
9000000000000008,
,
#GOGOSTART
600000000000000000000000800000000000000000000000,
100000000000000000000000100000000000000000000000,
600000000000800000000000000000000000000000000000,
100000000000100000000000100000000000000000000000,
100000000000000000000000200000000000000000000000,
200000000000200000000000200000000000000000000000,
100000000000100000000000100000000000000000000000,
700000000000000000000000000000800000000000000000,
300000000000300000000000300000000000000000000000,
300000000000300000000000300000000000000000000000,
300000000000300000000000300000000000000000000000,
400000000000400000000000400000000000000000000000,
300000000000300000000000300000000000000000000000,
300000000000300000000000300000000000000000000000,
400000000000400000000000400000000000000000000000,
300000000000300000000000300000000000000000000000,
#GOGOEND
#END