forked from ESE/ESE
787 lines
12 KiB
Plaintext
787 lines
12 KiB
Plaintext
//TJADB Project
|
|
TITLE:Hypnosis Mic -Division Battle Anthem-
|
|
TITLEJA:ヒプノシスマイク -Division Battle Anthem-
|
|
SUBTITLE:--Hypnosis Mic Division All Stars
|
|
SUBTITLEJA:Division All Stars
|
|
BPM:128
|
|
WAVE:Hypnosis Mic -Division Battle Anthem-.ogg
|
|
OFFSET:-2.000
|
|
DEMOSTART:86.379
|
|
|
|
COURSE:Oni
|
|
LEVEL:9
|
|
BALLOON:35,11,12,13,14,6,8,23,24,19,20,21,22,25,20
|
|
SCOREINIT:210
|
|
SCOREDIFF:33
|
|
|
|
|
|
#START
|
|
|
|
|
|
1122122122121000,
|
|
1121121121121111,
|
|
2002007000000000,
|
|
00000008,
|
|
1002102010201020,
|
|
1002102010221212,
|
|
1002102010201020,
|
|
1002102010221212,
|
|
111111111111,
|
|
222222222222,
|
|
111111111111,
|
|
222222222222,
|
|
1011201020102010,
|
|
1011202102111002,
|
|
1012002011220121,
|
|
1211011210121112,
|
|
0102112011221122,
|
|
1122102110211020,
|
|
1112102102112021,
|
|
0101222211112020,
|
|
0111202110121012,
|
|
0211221102112020,
|
|
0012121121121121,
|
|
1012011221211220,
|
|
70000008,
|
|
70000008,
|
|
70000008,
|
|
70000008,
|
|
102102120100,
|
|
112120211211,
|
|
101020101010200100400000,
|
|
112112211221,
|
|
201401211401,
|
|
211201211212,
|
|
102102102110,
|
|
112202111200,
|
|
1022111211121112,
|
|
1112111211121020,
|
|
1112111211122011,
|
|
2012112112112010,
|
|
111111222222,
|
|
111111222222,
|
|
111122111122,
|
|
121212121212,
|
|
101010001010100000500000000000000000000008000000,
|
|
2011121210120210,
|
|
2010121210120200,
|
|
2012021122121020,
|
|
1020102010203003,
|
|
0030001121203003,
|
|
0030001010211010,
|
|
2012011120120121,
|
|
2001004000000000,
|
|
|
|
#GOGOSTART
|
|
1020112010210120,
|
|
1020112010201120,
|
|
1020112010210120,
|
|
0010203000401202,
|
|
1020112010210120,
|
|
1020112010201120,
|
|
1122112210120121,
|
|
200000000100000000500000000000000000008000000000,
|
|
|
|
#GOGOEND
|
|
1002102010201040,
|
|
1012001011112040,
|
|
1202102211210200,
|
|
1122110211120200,
|
|
1012010211120040,
|
|
1011201010211070,
|
|
000000080000400000400000100000200100100000100100,
|
|
21217008,
|
|
1010221120120100,
|
|
2111211120120100,
|
|
2011212101121011,
|
|
2102012021012030,
|
|
111111111111,
|
|
222222222222,
|
|
111111111111,
|
|
222222222222,
|
|
500008000000200000100200100000200000100000000200,
|
|
2200101122112022,
|
|
1020100400300121,
|
|
1222010111221120,
|
|
2100221020210201,
|
|
2012102011222112,
|
|
2112022011212022,
|
|
0101202112021201,
|
|
0202200010101112,
|
|
1112111220120000,
|
|
1112101120120000,
|
|
1022101120120000,
|
|
70000008,
|
|
70000008,
|
|
02020202,
|
|
1122121212003001,
|
|
101010001010100000500000000000000000000008000000,
|
|
2011121210120210,
|
|
2010121210120200,
|
|
2012021122121020,
|
|
1020102010203003,
|
|
0030001121203003,
|
|
0030001010211010,
|
|
2012011120120121,
|
|
2001004000000000,
|
|
|
|
#GOGOSTART
|
|
1020112010210120,
|
|
1020112010201120,
|
|
1020112010210120,
|
|
0010203000401202,
|
|
1020112010210120,
|
|
1020112010201120,
|
|
1122112210120121,
|
|
200000000100000000500000000000000000000008000000,
|
|
|
|
#GOGOEND
|
|
1011201020112021,
|
|
1010201000112021,
|
|
1020102110201020,
|
|
1021102000201020,
|
|
0011221120020122,
|
|
1011200202112002,
|
|
0122122210221222,
|
|
1012021012121040,
|
|
0221102012211020,
|
|
1020122102211020,
|
|
0221102012211020,
|
|
0221122112211020,
|
|
70000008,
|
|
70000008,
|
|
70000008,
|
|
70000008,
|
|
3000222040404011,
|
|
2112120210112020,
|
|
0102102102102110,
|
|
2110211120120000,
|
|
1112102211211022,
|
|
1022121211112020,
|
|
1212212212212020,
|
|
1112102011221120,
|
|
1010201201020201,
|
|
0122102011221020,
|
|
2112102102112121,
|
|
0221020112121020,
|
|
111111111111,
|
|
222222222222,
|
|
111112111112,
|
|
102010201020000700000000,
|
|
0008,
|
|
2011211112012010,
|
|
2111211112012000,
|
|
2111202012012000,
|
|
2111011121212000,
|
|
2012020010210100,
|
|
2211020010210200,
|
|
1222111121212000,
|
|
1112221120212000,
|
|
70000008,
|
|
30000011,
|
|
00000001,
|
|
10000012,
|
|
1020112011203003,
|
|
0030001121203003,
|
|
0030001010211010,
|
|
2012011120120121,
|
|
2001004000000000,
|
|
|
|
#GOGOSTART
|
|
1220112012211020,
|
|
1122112212121020,
|
|
1121012111211021,
|
|
2011012212211000,
|
|
1121112012021120,
|
|
1202112211221022,
|
|
1122112210120121,
|
|
200000000100000000500000000000000000000008000000,
|
|
2012011120120121,
|
|
2001004000000000,
|
|
|
|
#GOGOEND
|
|
|
|
|
|
#END
|
|
|
|
|
|
COURSE:Hard
|
|
LEVEL:7
|
|
BALLOON:25,4,5,6,7,7,7,12,13,14,15,16,17,7,25,20
|
|
SCOREINIT:150
|
|
SCOREDIFF:40
|
|
|
|
|
|
#START
|
|
|
|
|
|
1110111011111000,
|
|
1101101011111000,
|
|
2002007000000000,
|
|
00000008,
|
|
1001101000101010,
|
|
1001101000222020,
|
|
1001101000101010,
|
|
1001101000222020,
|
|
111111,
|
|
222222,
|
|
111111,
|
|
222222,
|
|
1011101020102000,
|
|
1011101101111000,
|
|
1002000010220110,
|
|
1101011110111010,
|
|
0101111010201020,
|
|
1011101010111000,
|
|
1011101101101001,
|
|
0101101010111010,
|
|
0110101110111011,
|
|
0111101101111010,
|
|
0010101101101010,
|
|
1011011110101110,
|
|
70000008,
|
|
70000008,
|
|
70000008,
|
|
70000008,
|
|
100100110100,
|
|
100100110110,
|
|
110110200400,
|
|
111100111100,
|
|
201200201200,
|
|
101100111100,
|
|
100100101100,
|
|
111100222200,
|
|
0011101011101010,
|
|
1111101010111010,
|
|
0111101011101010,
|
|
1111101010111010,
|
|
111222,
|
|
111222,
|
|
112112,
|
|
121121,
|
|
500000000000000000000000000000000008000000000000,
|
|
1010111010110200,
|
|
1010111010110200,
|
|
1011011011111000,
|
|
1020102010003003,
|
|
0030001011103003,
|
|
0030001010111010,
|
|
1011011110110111,
|
|
1001004000000000,//53
|
|
|
|
#GOGOSTART
|
|
1020102010010020,
|
|
02020202,
|
|
1020102010010020,
|
|
01030400,
|
|
1020102010010020,
|
|
02020112,
|
|
1010202010110111,
|
|
100000000100000000500000000000000000000008000000,//61
|
|
|
|
#GOGOEND
|
|
1002001000201000,
|
|
1011001011111000,
|
|
1101101110110100,
|
|
1110110111110100,
|
|
1011010111110000,
|
|
1011101010111070,
|
|
0008000010111001,
|
|
11117008,
|
|
1011101110110100,
|
|
2022202220220200,
|
|
1011101101111000,
|
|
1101011011011000,
|
|
111111,
|
|
222222,
|
|
111111,
|
|
222222,
|
|
1000101110101000,
|
|
4000101011101011,
|
|
1010100400400110,
|
|
1101010110111030,
|
|
0300111030030101,
|
|
1011101011011011,
|
|
1101022010111022,
|
|
0101101111011101,
|
|
0202200010101110,
|
|
1011111010220000,
|
|
1011111010220000,
|
|
1011101110220000,
|
|
70000008,
|
|
70000008,
|
|
02020202,
|
|
1010101011003000,
|
|
500000000000000000000000000008000000400000000000,
|
|
1010111010110200,
|
|
1010111010110200,
|
|
1011011011111000,
|
|
1020102010203003,
|
|
0030001111103003,
|
|
0030001010111010,
|
|
1011011110110111,
|
|
1001004000000000,//102
|
|
|
|
#GOGOSTART
|
|
1020102010010020,
|
|
02020202,
|
|
1020102010010020,
|
|
01030400,
|
|
1020102010010020,
|
|
02020112,
|
|
1010202010110111,
|
|
100000000100000000500000000000000000000008000000,//110
|
|
|
|
#GOGOEND
|
|
1011101010111010,
|
|
1011101000101011,
|
|
1010101110101000,
|
|
12120212,
|
|
0011101110020111,
|
|
1011100201111002,
|
|
0111101010111010,
|
|
1011011011101020,
|
|
0111101011101010,
|
|
2020222202202020,
|
|
0111102011101020,
|
|
0111102011101020,
|
|
70000008,
|
|
70000008,
|
|
70000008,
|
|
70000008,
|
|
3000222040404000,
|
|
1110110110111010,
|
|
0202202202202220,
|
|
1110111110110000,
|
|
1011102011102020,
|
|
1020202011101020,
|
|
0700000080222020,
|
|
1111101011111000,
|
|
2010201101020201,
|
|
0220102011022020,
|
|
1110101102202222,
|
|
0222020202222020,
|
|
111222,
|
|
111222,
|
|
112112,
|
|
121070,
|
|
0008,
|
|
2010201011011000,
|
|
2010201011022000,
|
|
2010202011022000,
|
|
1011011011111000,
|
|
2010220110110100,
|
|
2222020010110100,
|
|
1110222011111000,
|
|
1020102010222000,
|
|
70000008,
|
|
30000011,
|
|
00000001,
|
|
10000012,
|
|
1020102010203003,
|
|
0030001011103003,
|
|
0030001010111010,
|
|
1011011110110111,
|
|
1001004000000000,//160
|
|
|
|
#GOGOSTART
|
|
1110222011111010,
|
|
1110222011111000,
|
|
1111010101111010,
|
|
1011011011111000,
|
|
1110222011111010,
|
|
1101011011111020,
|
|
1010202010110111,
|
|
100000000100000000500000000000000000000008000000,
|
|
1011011110110222,
|
|
2001004000000000,//170
|
|
|
|
#GOGOEND
|
|
,
|
|
,
|
|
,
|
|
#END
|
|
|
|
COURSE:Normal
|
|
LEVEL:6
|
|
BALLOON:20,8,8,8,8,50,5,5,12,11,10,10,11,11,11,11,7,15,11
|
|
|
|
#START
|
|
1202,
|
|
1202,
|
|
1001007000000000,
|
|
00000008,
|
|
1001001000001000,
|
|
1001001000000000,
|
|
1001001000001000,
|
|
1001001000000000,
|
|
111100,
|
|
222200,
|
|
111100,
|
|
222200,
|
|
10102120,
|
|
10101120,
|
|
1001000020020000,
|
|
1001000010102000,
|
|
10102220,
|
|
10104440,
|
|
1000100100002000,
|
|
10102220,
|
|
10101210,
|
|
10100120,
|
|
10101210,
|
|
1001001000002000,
|
|
70000008,
|
|
70000008,
|
|
70000008,
|
|
70000008,
|
|
100100110100,
|
|
100100110100,
|
|
1124,
|
|
101100101100,
|
|
202200202200,
|
|
101100101100,
|
|
100100101100,
|
|
100100101100,
|
|
01111110,
|
|
11111110,
|
|
02222220,
|
|
22222220,
|
|
9,
|
|
,
|
|
,
|
|
9,
|
|
8,
|
|
1000100010020200,
|
|
1000100010020200,
|
|
1001000020202000,
|
|
500000000000000000000008000000000000300000000300,
|
|
0030002020003003,
|
|
000000300000000000500000000000000008000000000000,
|
|
2002000020020000,
|
|
3003004000000000,//53
|
|
|
|
#GOGOSTART
|
|
1000100010020050,
|
|
000000000000000000000000000000000008000000000000,
|
|
1000100010020010,
|
|
02030400,
|
|
1000100010020050,
|
|
000000000000000000000008000000000000200000000000,
|
|
1000200010020000,
|
|
3003004000000000,//61
|
|
|
|
#GOGOEND
|
|
1001001000200000,
|
|
1001001010001000,
|
|
1001001010010000,
|
|
1001001010010000,
|
|
1001001010010000,
|
|
10201017,
|
|
00801110,
|
|
10207008,
|
|
1000100010100100,
|
|
2000200020200200,
|
|
1000100100101000,
|
|
2002002020002000,
|
|
111100,
|
|
222200,
|
|
111300,
|
|
222400,
|
|
1211,
|
|
2122,
|
|
300000000000000000600000000008000000000000000000,
|
|
20102026,
|
|
000008000000000000000000600000000008000000000000,
|
|
07000000,
|
|
8000100100002002,
|
|
07000000,
|
|
80402220,
|
|
10101200,
|
|
11101200,
|
|
11101200,
|
|
70000008,
|
|
70000008,
|
|
02020202,
|
|
1113,
|
|
500000000000000000000008000000000000400000000000,
|
|
1000100020020200,
|
|
1000100020020200,
|
|
1001000020202000,
|
|
500000000000000000000008000000000000300000000300,
|
|
0030002020003003,
|
|
000000300000000000500000000000000008000000000000,
|
|
2002000020020000,
|
|
3003004000000000,//102
|
|
|
|
#GOGOSTART
|
|
1000100010020050,
|
|
000000000000000000000000000000000008000000000000,
|
|
1000100010020010,
|
|
02030400,
|
|
1000100010020050,
|
|
000000000000000000000008000000000000200000000000,
|
|
1000200010020000,
|
|
3003004000000000,//110
|
|
|
|
#GOGOEND
|
|
01101110,
|
|
10110110,
|
|
20112011,
|
|
20120202,
|
|
1140,
|
|
0404,
|
|
10221020,
|
|
10221040,
|
|
10201120,
|
|
1000202001004000,
|
|
10201120,
|
|
10201120,
|
|
70000008,
|
|
70000008,
|
|
70000008,
|
|
70000008,
|
|
300000000000500008000000200000200000200000000000,
|
|
10201110,
|
|
10200220,
|
|
11102220,
|
|
10120120,
|
|
10121020,
|
|
0700000000802020,
|
|
10101110,
|
|
21202220,
|
|
10202220,
|
|
10202220,
|
|
10202220,
|
|
111100,
|
|
222200,
|
|
112100,
|
|
121070,
|
|
0008,
|
|
20211010,
|
|
10122020,
|
|
10221010,
|
|
11201220,
|
|
1001000020020000,
|
|
1002000010020000,
|
|
10102220,
|
|
10101220,
|
|
70000008,
|
|
10000011,
|
|
00000001,
|
|
10000012,
|
|
0020002000203003,
|
|
0030002020003003,
|
|
000000300000000000500000000000000000000008000000,
|
|
1001000010010000,
|
|
3003004000000000,//160
|
|
|
|
#GOGOSTART
|
|
10121020,
|
|
11102220,
|
|
10121021,
|
|
01010100,
|
|
10121020,
|
|
11102220,
|
|
1000200010020000,
|
|
3003004000000000,
|
|
2001000020010000,
|
|
3003004000000000,//170
|
|
|
|
#GOGOEND
|
|
,
|
|
,
|
|
,
|
|
#END
|
|
|
|
COURSE:Easy
|
|
LEVEL:4
|
|
BALLOON:16,7,7,7,7,42,4,10,8,42,8,8,8,8,7,36
|
|
|
|
#START
|
|
1102,
|
|
1102,
|
|
10070000,
|
|
00000008,
|
|
10010000,
|
|
10010000,
|
|
10010000,
|
|
10010000,
|
|
11,
|
|
22,
|
|
33,
|
|
44,
|
|
1120,
|
|
1120,
|
|
34,
|
|
1120,
|
|
1022,
|
|
1044,
|
|
1022,
|
|
1044,
|
|
1101,
|
|
1102,
|
|
1101,
|
|
1102,
|
|
70000008,
|
|
70000008,
|
|
70000008,
|
|
70000008,
|
|
1210,
|
|
1210,
|
|
1124,
|
|
1212,
|
|
1414,
|
|
500000000000000000000000000000000008000000000000,
|
|
1212,
|
|
1212,
|
|
00100011,
|
|
0103,
|
|
00100011,
|
|
0104,
|
|
9,
|
|
,
|
|
,
|
|
9,
|
|
8,
|
|
1122,
|
|
1122,
|
|
1024,
|
|
500000000000000000000008000000000000300000000300,
|
|
0030000000003003,
|
|
03000000,
|
|
44,
|
|
3003003000000000,//53
|
|
|
|
#GOGOSTART
|
|
1111,
|
|
1110,
|
|
10101011,
|
|
000000500000000000000000000000000008000000000000,
|
|
1111,
|
|
1110,
|
|
1212,
|
|
3003003000000000,//61
|
|
|
|
#GOGOEND
|
|
10010000,
|
|
20020000,
|
|
10010000,
|
|
20020000,
|
|
10010000,
|
|
100000000000200000000000500000000000000000000008,
|
|
00110000,
|
|
10207008,
|
|
1210,
|
|
2120,
|
|
1210,
|
|
2120,
|
|
11,
|
|
22,
|
|
33,
|
|
44,
|
|
11,
|
|
12,
|
|
300000000000000000600000000008000000000000000000,
|
|
10002006,
|
|
000008000000000000000000600000000008000000000000,
|
|
07000000,
|
|
800000000500000000008000000000000000500000000008,
|
|
07000008,
|
|
500000000008000000000000200000000000200000000000,
|
|
1120,
|
|
1120,
|
|
1120,
|
|
9,
|
|
,
|
|
,
|
|
9,
|
|
8,
|
|
1122,
|
|
1122,
|
|
1024,
|
|
500000000000000000000008000000000000300000000300,
|
|
0030000000003003,
|
|
03000000,
|
|
44,
|
|
3003003000000000,//102
|
|
|
|
#GOGOSTART
|
|
1111,
|
|
1110,
|
|
10101011,
|
|
000000500000000000000000000000000008000000000000,
|
|
1111,
|
|
1110,
|
|
1212,
|
|
3003003000000000,//110
|
|
|
|
#GOGOEND
|
|
1220,
|
|
1220,
|
|
1212,
|
|
1212,
|
|
04,
|
|
0404,
|
|
00200022,
|
|
0204,
|
|
1113,
|
|
1114,
|
|
1313,
|
|
1113,
|
|
70000008,
|
|
70000008,
|
|
70000008,
|
|
70000008,
|
|
500000000008000000000000200000000000200000000000,
|
|
1133,
|
|
1202,
|
|
1202,
|
|
1202,
|
|
1202,
|
|
0700000000008000,
|
|
1200,
|
|
1222,
|
|
1222,
|
|
1222,
|
|
1222,
|
|
9,
|
|
,
|
|
0900,
|
|
8,
|
|
500000000000000000000000000008000000000000000000,
|
|
1111,
|
|
2222,
|
|
1122,
|
|
1212,
|
|
1324,
|
|
1324,
|
|
500000000000000000000008000000000000400000000000,
|
|
500000000000000000000008000000000000300000000000,
|
|
600000000000000000000000000000000008000000000000,
|
|
10000011,
|
|
00000001,
|
|
1024,
|
|
500000000000000000000008000000000000300000000300,
|
|
0030000000003003,
|
|
000000300000000000500000000000000008000000000000,
|
|
44,
|
|
3003003000000000,//160
|
|
|
|
#GOGOSTART
|
|
1111,
|
|
1112,
|
|
1112,
|
|
1212,
|
|
1112,
|
|
1112,
|
|
1212,
|
|
3003003000000000,
|
|
44,
|
|
3003004000000000,//170
|
|
|
|
#GOGOEND
|
|
,
|
|
,
|
|
,
|
|
#END |