Files
ESE-ja-fix/01 Pop/Ikenai Taiyou/Ikenai Taiyou.tja
T
2023-06-15 19:15:39 -05:00

314 lines
3.2 KiB
Plaintext

//TJADB Project
TITLE:Ikenai Taiyou
TITLEJA:イケナイ太陽
SUBTITLE:--ORANGE RANGE
BPM:145
WAVE:Ikenai Taiyou.ogg
OFFSET:-1.823
DEMOSTART:61.823
COURSE:Oni
LEVEL:7
SCOREINIT:620
SCOREDIFF:168
#START
12101012,
1020100010002011,
12101012,
1020100020102011,
12101012,
1020100010002011,
12101012,
2020101020201111,
1000000022112211,//9
#GOGOSTART
1000100010111011,
10112020,
1000100010111011,
1000101022112211,
1000100010111011,
10112020,
1000100010111011,
1020201120102210,//17
#GOGOEND
1000100011101020,
1011201000102220,
1000100022112211,
03340000,
11210212,
11210120,
11210212,
11210210,
11210212,
11210120,
11201121,
03333040,
1010201110102020,
1010201110102000,
11201121,
01210120,
1011101110102011,
1011101110102020,
34343434,
3000200022112211,//37
#GOGOSTART
1011201110112022,
1011201110112022,
1011202210112022,
1011101022112211,
1011201110112022,
1011201110112022,
1111102011111020,
03333202,
1111102011111020,
03333202,
33443340,
1000100010111011,
10112020,
1000100010111011,
1000101022112211,
1000100010111011,
10112020,
1000100010111011,
1020201120102210,//56
#GOGOEND
3,
#END
COURSE:Hard
LEVEL:5
BALLOON:5
#START
12101012,
1020100010002011,
12101012,
1020100020102011,
12101012,
1020100010002011,
12101012,
2020101020201110,
78,//9
#GOGOSTART
1000100010001011,
10112020,
1000100010001011,
10112210,
1000100010001011,
10112020,
1000100010001011,
1020201110202220,//17
#GOGOEND
10102121,
11210122,
10102121,
01120000,
11210212,
11210120,
11210212,
11210210,
11210212,
11210120,
11221121,
03333000,
1000201000111020,
1000201000111020,
11021121,
01210120,
1000100010111010,
1000100010111010,
3333,
3,//37
#GOGOSTART
1000101000222020,
1000101000111020,
10211021,
10112210,
1000101000222020,
1000101000111020,
33003300,
03333202,
33003300,
03333202,
33443340,
1000100010001011,
10112020,
1000100010001011,
10112210,
1000100010001011,
10112020,
1000100010001011,
1020201110202220,//56
#GOGOEND
3,
,
,
,
#END
COURSE:Normal
LEVEL:4
BALLOON:4,15
#START
1110,
1110,
1120,
1120,
1110,
1110,
1120,
2211,
70000800,//9
#GOGOSTART
1111,
1110,
10101011,
1110,
1111,
1110,
10101011,
1110,//17
#GOGOEND
1111,
10010010,
1111,
03030000,
12,
12,
1112,
1122,
12,
12,
33,
3330,
1101,
1101,
1011,
10010000,
1112,
1112,
3333,
3,//37
#GOGOSTART
10110020,
10110020,
1111,
10110000,
10110020,
10110020,
33,
03333000,
33,
600000000000000000000008000000000000000000000000,
33,
1111,
1110,
10101011,
1110,
1111,
1110,
7,
0000000000000008,//56
#GOGOEND
,
,
,
,
#END
COURSE:Easy
LEVEL:4
BALLOON:2,8
#START
1110,
1110,
1110,
2220,
1110,
1110,
1110,
2211,
7008,//9
#GOGOSTART
11,
1110,
11,
1120,
11,
1110,
11,
1120,//17
#GOGOEND
1110,
10010000,
1111,
03030000,
1,
1,
12,
12,
1,
1,
33,
3330,
11,
1111,
11,
10010000,
1110,
1110,
3333,
3,//37
#GOGOSTART
1101,
1101,
1111,
1110,
1101,
1101,
1111,
500000000000000000000008000000000000000000000000,
33,
600000000000000000000008000000000000000000000000,
33,
1111,
1110,
1111,
1120,
1111,
1110,
9,
0090,//56
#GOGOEND
8,
,
,
,
#END