Files
ESE-ja-fix/01 Pop/KISS KISS BANG BANG/KISS KISS BANG BANG.tja
T
2023-06-15 19:15:39 -05:00

382 lines
15 KiB
Plaintext

//TJADB Project
TITLE:KISS KISS BANG BANG
TITLEJA:KISS KISS BANG BANG
SUBTITLE:--Ikimono-gakari/Jurokucha
SUBTITLEJA:「アサヒ飲料十六茶CM」より
BPM:154
WAVE:KISS KISS BANG BANG.ogg
OFFSET:-2.005
DEMOSTART:89.277
COURSE:Oni
LEVEL:5
SCOREINIT:490
SCOREDIFF:100
NOTESDESIGNER3:Kuboken
#START
300000000000000000000000000000000000000000000000,
200000000000200000000000200200100000200200100000,
200000000000100000000000100000000000100000000000,
100000000000000000300000000000000000000000200200,
200000200200200000200000200200200000200000300000,
000000300000000000300000300000000000400000000000,
#GOGOSTART
100000100000200000000100100000100000200000300000,
000000300000000000300000300000200200200000200000,
100000100000200000000100100000100000200000300000,
000000300000000000300000300000200200200000500000,
000000000000000008000000200200200000200000500000,
000000000000000008000000200200200000200000300000,
000000100100100000400000000000100100100000300000,
000000100100100000400000000000200200200000200000,
100000100000200000000100100000100000200000300000,
000000300000000000300000300000200200200000200000,
100000100000200000000100100000100000200000300000,
000000300000000000300000300000200200200000500000,
000000000000000008000000200200200000200000500000,
000000000000000008000000200200200000200000300000,
000000100100100000400000000000100100100000300000,
000000100100100000400000000000100000100000000000,
#GOGOEND
300000000000200000000000100000100000200000100000,
000000100000200000200200200000200000200200200000,
100000000000200000000000100000100000200000100000,
000000100000200000100100200000200000100000000000,
100000000000200000000000100000100000200000100000,
000000100000200000200200200000200000200200200000,
100000000000200000000000100000100000200000100000,
000000100000200000100100200000200000100000100100,
100000000000200000100100100000100000200000100000,
000000100000200000100100100000200200200000100000,
000000100000200000100100100000100000200000100000,
000000100000200000100100100000200200200000100000,
000000100000200000100000100100100000200000100000,
000000100000200000100000100100100000200000200000,
100000000000200000100000100000000000200000300000,
000000000000300000000000300000300000000000100100,
100000000000200000100100100000100000200000100000,
000000100000200000100100100000200200200000100000,
000000100000200000100100100000100000200000100000,
000000100000200000100100100000200200200000100000,
000000100000200000100000100100100000200000100000,
000000100000200000100000100100100000200000200000,
100000000000200000100000100000000000200000000000,
300000000000300000000000300000300000000000300000,
000000100000200000000000200000100100100000100000,
000000100000200000100000000000100100200000100000,
000000100000200000000000200000100100100000100000,
000000100000200000100000000000100100200000100000,
000000100000200000000000200000100100100000200000,
000000100000200000100000100000100100200000100000,
100000100100200000500000000000000000000000000000,
000000000008000000000000100000100100200000100000,
100000100100200000200000600000000000000000000000,
000000000000000000000008000000000000000000000000,
#GOGOSTART
100000100000200000000100100000100000200000300000,
000000300000000000300000300000200200200000200000,
100000100000200000000100100000100000200000300000,
000000300000000000300000300000200200200000500000,
000000000000000008000000200200200000200000500000,
000000000000000008000000200200200000200000300000,
000000100100100000400000000000100100100000300000,
000000100100100000400000000000200200200000200000,
100000100000200000000100100000100000200000300000,
000000300000000000300000300000200200200000200000,
100000100000200000000100100000100000200000300000,
000000300000000000300000300000200200200000500000,
000000000000000008000000200200200000200000500000,
000000000000000008000000200200200000200000300000,
000000100100100000400000000000100100100000300000,
000000100100100000400000000000100000100000000000,
#GOGOEND
300000000000000000000000000000000000000000000000,
#END
COURSE:Hard
LEVEL:5
BALLOON:12
SCOREINIT:600
SCOREDIFF:150
#START
300000000000000000000000000000000000000000000000,
200000000000200000000000100100100000100100100000,
000000000000100000000000100000000000100000000000,
100000000000000000000300000000000000000000000000,
90000008,
000000000000000000000000000000000000000000000000,
#GOGOSTART
100000000000100000000000100000000000200000100000,
000000100000000000100000100000000000200000000000,
100000000000100000000000100000000000200000100000,
000000100000000000100000100000200200200000500000,
000000000000000000000080000000200200200000500000,
000000000000000000000080000000000000000000300000,
000000000000400000400000000000000000300000300000,
000000000000400000400000000000000000400000000000,
100000000000100000000000100000000000200000100000,
000000100000000000100000100000000000200000000000,
100000000000100000000000100000000000200000100000,
000000100000000000100000100000200200200000500000,
000000000000000000000080000000200200200000500000,
000000000000000000000080000000000000000000300000,
000000000000400000400000000000000000300000300000,
000000000000400000400000000000100000100000000000,
#GOGOEND
300000000000100000000000100000100000000000100000,
000000100000000000200000000000200000100000200000,
100000000000100000000000100000100000000000200000,
000000200000000000100000200000200000100000000000,
100000000000100000000000100000100000000000100000,
000000100000000000200000000000200000100000200000,
100000000000100000000000100000100000000000200000,
000000200000000000100000200000200000100000100000,
000000000000200000000000100000100000200000100000,
000000100000100000000000100000200000200000100000,
000000100000100000000000100000100000200000100000,
000000100000100000000000100000200000200000100000,
000000100000100000000000100000100000200000100000,
000000100000100000000000100000100000200000200000,
100000000000000000100000100000000000000000300000,
000000000000300000000000300000300000000000100000,
000000100000100000000000100000100000200000100000,
000000100000100000000000100000200000200000100000,
000000100000100000000000100000100000200000100000,
000000100000100000000000100000200000200000100000,
000000100000100000000000100000100000200000100000,
000000100000100000000000100000100000200000200000,
100000000000000000100000100000000000000000000000,
300000000000300000000000300000300000000000300000,
000000200000200000000000200000100100100000100000,
000000100000000000100000000000100000100000100000,
000000200000200000000000200000100100100000100000,
000000100000000000100000000000100000100000100000,
000000200000200000000000200000100000100000200000,
000000100000200000000000100000000100000000100000,
100000000000200000500000000000000000000000000000,
000000000080000000000000100000000100000000100000,
100000000000200000200000600000000000000000000000,
000000000000000000000080000000000000000000000000,
#GOGOSTART
100000000000100000000000100000000000200000100000,
000000100000000000100000100000000000200000000000,
100000000000100000000000100000000000200000100000,
000000100000000000100000100000200200200000500000,
000000000000000000000080000000200200200000500000,
000000000000000000000080000000000000000000300000,
000000000000400000400000000000000000300000300000,
000000000000400000400000000000000000400000000000,
100000000000100000000000100000000000200000100000,
000000100000000000100000100000000000200000000000,
100000000000100000000000100000000000200000100000,
000000100000000000100000100000200200200000500000,
000000000000000000000080000000200200200000500000,
000000000000000000000080000000000000000000300000,
000000000000400000400000000000000000300000300000,
000000000000400000400000000000100000100000000000,
#GOGOEND
300000000000000000000000000000000000000000000000,
#END
COURSE:Normal
LEVEL:4
BALLOON:8
SCOREINIT:700
SCOREDIFF:180
#START
300000000000000000000000000000000000000000000000,
200000000000200000000000100000000000100000000000,
000000000000100000000000100000000000100000000000,
100000000000000000000300000000000000000000000000,
9,
8,
#GOGOSTART
100000000000100000000000100000000000000000100000,
000000100000000000100000100000000000000000000000,
100000000000100000000000100000000000000000100000,
000000100000000000100000100000000000000000500000,
000000000000000000800000000000000000000000500000,
000000000000000000800000000000000000000000300000,
000000000000400000400000000000000000300000300000,
000000000000400000400000000000000000000000000000,
100000000000100000000000100000000000000000100000,
000000100000000000100000100000000000000000000000,
100000000000100000000000100000000000000000100000,
000000100000000000100000100000000000000000500000,
000000000000000000800000000000000000000000500000,
000000000000000000800000000000000000000000300000,
000000000000400000400000000000000000300000300000,
000000000000400000400000000000000000000000000000,
#GOGOEND
300000000000100000000000100000000000000000100000,
000000100000000000200000000000000000200000000000,
100000000000100000000000100000000000000000200000,
000000200000000000100000000000000000100000000000,
100000000000100000000000100000000000000000100000,
000000100000000000200000000000000000200000000000,
100000000000100000000000100000000000000000200000,
000000200000000000100000000000000000000000100000,
000000000000100000000000100000000000000000100000,
000000000000100000000000100000000000000000100000,
000000000000100000000000100000000000000000100000,
000000000000100000000000100000000000000000100000,
000000000000100000000000100000000000000000500000,
000000000000800000000000000000000000000000000000,
100000000000000000000000100000000000000000300000,
000000000000300000000000300000300000000000100000,
000000000000100000000000100000000000000000200000,
000000000000200000000000200000000000000000100000,
000000000000100000000000100000000000000000200000,
000000000000200000000000200000000000000000100000,
000000000000100000000000100000000000000000500000,
000000000000800000000000000000000000000000000000,
100000000000000000000000100000000000000000000000,
300000000000300000000000300000300000000000600000,
000000000000800000000000000000000000000000400000,
000000000000000000300000000000300000000000600000,
000000000000800000000000000000000000000000400000,
000000000000000000300000000000300000000000600000,
000000000000800000000000000000100000000000100000,
000000000000000000000000100000000000100000000000,
100000000000000000500000000000000000000000000000,
000000800000000000000000100000000000000000000000,
300000000000000000000000600000000000000000000000,
000000000000000000800000000000000000000000000000,
#GOGOSTART
100000000000100000000000100000000000000000100000,
000000100000000000100000100000000000000000000000,
100000000000100000000000100000000000000000100000,
000000100000000000100000100000000000000000500000,
000000000000000000800000000000000000000000500000,
000000000000000000800000000000000000000000300000,
000000000000400000400000000000000000300000300000,
000000000000400000400000000000000000000000000000,
100000000000100000000000100000000000000000100000,
000000100000000000100000100000000000000000000000,
100000000000100000000000100000000000000000100000,
000000100000000000100000100000000000000000500000,
000000000000000000800000000000000000000000500000,
000000000000000000800000000000000000000000300000,
000000000000400000400000000000000000300000300000,
000000000000400000400000000000100000100000000000,
#GOGOEND
300000000000000000000000000000000000000000000000,
#END
COURSE:Easy
LEVEL:4
BALLOON:5
SCOREINIT:650
SCOREDIFF:170
#START
300000000000000000000000000000000000000000000000,
000000000000000000000000000000000000000000000000,
000000000000100000000000100000000000100000000000,
100000000000000000000300000000000000000000000000,
90000008,
000000000000000000000000000000000000000000000000,
#GOGOSTART
100000000000100000000000100000000000000000100000,
000000100000000000000000100000000000000000000000,
100000000000100000000000100000000000000000100000,
000000100000000000000000100000000000000000500000,
000000000000000000000080000000000000000000500000,
000000000000000000000080000000000000000000300000,
000000000000000000400000000000000000000000300000,
000000000000000000400000000000000000000000000000,
100000000000100000000000100000000000000000100000,
000000100000000000000000100000000000000000000000,
100000000000100000000000100000000000000000100000,
000000100000000000000000100000000000000000500000,
000000000000000000000080000000000000000000500000,
000000000000000000000080000000000000000000300000,
000000000000000000400000000000000000000000300000,
000000000000000000400000000000000000000000000000,
#GOGOEND
100000000000100000000000100000000000000000100000,
000000100000000000000000000000000000000000000000,
100000000000100000000000100000000000000000200000,
000000200000000000000000000000000000000000000000,
100000000000100000000000100000000000000000100000,
000000100000000000000000000000000000000000000000,
100000000000100000000000100000000000000000200000,
000000200000000000000000000000000000000000100000,
000000000000000000000000100000000000000000100000,
000000000000000000000000100000000000000000100000,
000000000000000000000000100000000000000000100000,
000000000000000000000000100000000000000000100000,
000000000000000000000000100000000000000000500000,
000000000000000080000000000000000000000000000000,
100000000000000000000000100000000000000000300000,
000000000000300000000000300000000000000000100000,
000000000000000000000000100000000000000000200000,
000000000000000000000000200000000000000000100000,
000000000000000000000000100000000000000000200000,
000000000000000000000000200000000000000000100000,
000000000000000000000000100000000000000000500000,
000000000000000080000000000000000000000000000000,
100000000000000000000000100000000000000000000000,
300000000000300000000000300000000000000000300000,
000000000000000000000000000000000000000000100000,
000000100000000000100000000000100000000000100000,
000000000000000000000000000000000000000000100000,
000000100000000000100000000000100000000000100000,
000000000000000000000000000000100000000000100000,
000000000000000000000000100000000000100000000000,
100000000000000000500000000000000000000000000000,
000000000080000000000000100000000000000000000000,
300000000000000000000000600000000000000000000000,
000000000000000000000080000000000000000000000000,
#GOGOSTART
100000000000100000000000100000000000000000100000,
000000100000000000000000100000000000000000000000,
100000000000100000000000100000000000000000100000,
000000100000000000000000100000000000000000500000,
000000000000000000000080000000000000000000500000,
000000000000000000000080000000000000000000300000,
000000000000000000400000000000000000000000300000,
000000000000000000400000000000000000000000000000,
100000000000100000000000100000000000000000100000,
000000100000000000000000100000000000000000000000,
100000000000100000000000100000000000000000100000,
000000100000000000000000100000000000000000500000,
000000000000000000000080000000000000000000500000,
000000000000000000000080000000000000000000300000,
000000000000000000400000000000000000000000300000,
000000000000000000400000000000000000000000000000,
#GOGOEND
300000000000000000000000000000000000000000000000,
#END