Files
ESE-ja-fix/01 Pop/Kimi ga Kureta Natsu/Kimi ga Kureta Natsu.tja
T
2023-06-15 19:00:23 -05:00

225 lines
7.3 KiB
Plaintext

//TJADB Project
TITLE:Kimi ga Kureta Natsu
TITLEJA:君がくれた夏
SUBTITLE:--Leo Ieiri & Kikuo Sato/Koinaka
BPM:85
WAVE:Kimi ga Kureta Natsu.ogg
OFFSET:-10.349
DEMOSTART:80.922
COURSE:Oni
LEVEL:6
BALLOON:15
SCOREINIT:1150
SCOREDIFF:365
#START
#BARLINEOFF
000000000000000000000000000000000000300000000000,
#BARLINEON
100000100000200000200200100000100000200000200000,
100000100100200000200000100000100100200000200000,
100000100000200000200200100000100000200000200000,
100000100100200000200000100000000000000000000000,
100200000100000200000100000100100000200000000000,
100200000100000200000100000100100000200000000100,
100000100000200000200000000000100000200200100100,
200000100000200000200000000000100000200000200200,
100200000100000200000100000100100000200000200200,
100200000100000200000100000200200000100000200000,
100100100000200000000200000000100000200000100100,
100000100000200000200000000100200000000000200000,
000000200000000000100000100100100000200000200000,
000000200000100000000100000000100000200200000100,
000000100000200200000100100000100000200000200000,
000000000000000000300000400000000400000000400000,
600000000008000000300000400000000400000000400000,
700000000000000000000000000000800000000000100000,
200200000100000200200000100000200000000000100000,
200200000100000000100000200000200000000000000000,
#GOGOSTART
100000100100200000200000100100100000200000200000,
100000100100200000200000100100100100200000200000,
100000100100200000200000100100100000200000200000,
100000100100200000200000100100100000200000000000,
100200000100000200000100000100000200000200200200,
100200000100000200000100000100000200000100000100,
200000100000200100000100200000100000200100100100,
200000000000000000000000000000000000300000000000,
#GOGOEND
100000100000200000200000100000200000100100000100,
200000100000200000200000100000200000100100000200,
200000100000200000200000100000200000100100100000,
400000000000000000000000000000000000000000000000,
#END
COURSE:Hard
LEVEL:5
BALLOON:11
SCOREINIT:1120
SCOREDIFF:393
#START
#BARLINEOFF
000000000000000000000000000000000000300000000000,
#BARLINEON
100000000000200000000000100000100000200000000000,
100000000000200000000000100000100000200000200000,
100000000000200000000000100000100000200000200000,
100000100100100000100000200000000000000000000000,
100000000000200000000000100000100000200000000000,
100000000000200000000000100000100000200000000000,
100000100000200000200000000000100000200000100100,
100000100000200000200000000000100000200000000000,
100000100000200000200000100100100000200000000000,
100000100000200000200000100100100000200000200000,
100100100000000000000000000000100000200000100100,
100000100000200000200000000000200000000000200000,
000000200000000000100000100100100000200000200000,
000000100000000000000000000000100000200000000000,
100000100000200200000000100000100000200000200000,
000000000000000000300000400000000400000000400000,
600000000008000000300000400000000400000000400000,
700000000000000000000000000000800000000000100000,
100100000100000100100000100000100000000000200000,
200200000200000000200000200000200000000000000000,
#GOGOSTART
100000100000200000200000100100100000200000200000,
100000000000200000000000100100100000200000200000,
100000100000200000200000100100100000200000200000,
100000000000200000000000100100100000200000000000,
100000200000100000200000100100100000200000000000,
100000200000100000200000100100100000200000000000,
100000000000200000000000100000100000200000200000,
300000000000000000000000000000000000300000000000,
#GOGOEND
100000100000200000200000100000100000200000000000,
100000100000200000200000100100100000200000000000,
100000100000200000200000100000100000100100100000,
400000000000000000000000000000000000000000000000,
#END
COURSE:Normal
LEVEL:4
BALLOON:10
SCOREINIT:1380
SCOREDIFF:796
#START
#BARLINEOFF
000000000000000000000000000000000000000000000000,
#BARLINEON
100000000000000000000000100000000000000000000000,
100000000000100000000000200000000000200000000000,
100000000000000000000000100000000000000000000000,
100000000000100000000000200000000000000000000000,
100000000000000000000000100000000000200000000000,
100000000000000000000000100000000000200000000000,
100000000000200000200000000000000000000000000000,
100000000000200000200000000000000000000000000000,
100000000000200000000000100000100000200000000000,
100000000000200000000000100000100000200000000000,
100000000000000000000000000000200000200000000000,
100000000000000000000000100000000000200000000000,
100000000000000000000000100000000000200000000000,
100000000000000000000000000000200000200000000000,
100000000000200000000000500000000000000008000000,
000000000000000000000000300000000000400000000000,
600000800000000000000000300000000000400000000000,
700000000000000000000000800000000000000000000000,
100000000000200000000000100000100000200000000000,
100000000000000000000000200000200000000000000000,
#GOGOSTART
100000000000200000000000100000100000200000000000,
100000000000200000000000100000100000200000200000,
100000000000200000000000100000100000200000000000,
100000000000200000000000100000100000200000000000,
300000000000400000000000300000300000400000000000,
300000000000400000000000300000300000400000000000,
100000000000000000000000100000000000000000000000,
100000000000000000000000000000000000000000000000,
#GOGOEND
100000100000200000000000100000000000200000000000,
100000100000200000000000100000000000200000000000,
100000100000200000000000100000000000200000000000,
300000000000000000000000000000000000000000000000,
#END
COURSE:Easy
LEVEL:3
BALLOON:7
SCOREINIT:1190
SCOREDIFF:918
#START
#BARLINEOFF
000000000000000000000000000000000000000000000000,
#BARLINEON
100000000000000000000000100000000000000000000000,
100000000000100000000000200000000000200000000000,
100000000000000000000000100000000000000000000000,
100000000000100000000000200000000000000000000000,
100000000000000000000000200000000000000000000000,
100000000000000000000000200000000000000000000000,
100000000000100000000000000000000000000000000000,
100000000000100000000000000000000000000000000000,
100000000000200000000000100000000000000000000000,
100000000000200000000000100000000000000000000000,
100000000000000000000000000000000000000000000000,
100000000000000000000000100000000000000000000000,
100000000000000000000000100000000000200000000000,
100000000000000000000000100000000000200000000000,
100000000000000000000000500000000008000000000000,
000000000000000000000000300000000000300000000000,
600000800000000000000000400000000000400000000000,
700000000000000000000000800000000000000000000000,
100000000000100000000000100000000000000000000000,
200000000000200000000000200000000000000000000000,
#GOGOSTART
100000000000000000000000100000000000200000000000,
100000000000100000000000200000000000200000000000,
100000000000000000000000100000000000200000000000,
100000000000100000000000200000000000000000000000,
300000000000400000000000300000000000400000000000,
300000000000400000000000300000000000400000000000,
100000000000000000000000100000000000000000000000,
100000000000000000000000000000000000000000000000,
#GOGOEND
100000000000000000000000000000000000200000000000,
100000000000000000000000000000000000200000000000,
100000000000000000000000000000000000200000000000,
300000000000000000000000000000000000000000000000,
#END