Files
ESE-ja-fix/01 Pop/Kimi wa Ten-Nen-Shoku/Kimi wa Ten-Nen-Shoku.tja
T
2023-06-15 19:05:10 -05:00

291 lines
12 KiB
Plaintext

//TJADB Project
TITLE:Kimi wa Ten-Nen-Shoku
TITLEJA:君は天然色
SUBTITLE:--Eiichi Otaki/Kakushigoto
BPM:139.985
WAVE:Kimi wa Ten-Nen-Shoku.ogg
OFFSET:-2.084
DEMOSTART:72.363
COURSE:Oni
LEVEL:4
BALLOON:22,12,16
#START
100000001000200000000000100000001000200000000000,
100010001000200000000000100000001000200000000000,
100000001000200000000000100000001000200000000000,
100010001000200000000000100000001000200000000000,
200000002000200000000000200000002000200000000000,
200020002000200000000000200000002000200000000000,
200000002000200000000000200000002000200000000000,
200020002000200000000000200000002000200000000000,
300000000000300000000000000000001000100000000000,
300000000000000000001000100000000000100000000000,
100000000000200000001000100000000000200000000000,
100000000000200000001000100000000000200000000000,
200000000000200000002000200000000000200000000000,
200000000000200000002000200000002000200000000000,
100000000000100000001000200000000000200000000000,
100000000000100000001000200000000000200000000000,
200000000000200000002000200000000000200000000000,
200000000000200000002000200000002000200000000000,
100000001000000010000000100000001000000010001000,
100000001000000010000000100000001000000010001000,
100000001000000010000000100000001000000010001000,
100000001000000010000000100000001000000010000000,
300000000000100000001000200000000000100000000000,
300000000000100000001000200000000000100000000000,
700000000000000000000000000000000000000000000000,
000000000000000000000000000800000000000000000000,
100000001000200000002000000000001000200000000000,
100000001000200000002000000000001000200000000000,
200000000000200000002000200000000000200000000000,
200000000000200000002000200000002000200000000000,
100000000000200000001000200000002000100000000000,
100000000000200000001000200000002000100000000000,
200000000000200000002000200000000000200000000000,
200000000000200000002000200000002000200000000000,
100000001000000010000000100000001000000010001000,
100000001000000010000000100000001000000010001000,
100000001000000010000000100000001000000010001000,
100000001000000010000000100000001000000010000000,
300000000000100000001000200000001000200000000000,
300000000000100000001000200000001000200000000000,
700000000000000000000000000000000000800000000000,
100000000000200000001000100000001000200000000000,
100000000000200000001000100000001000200000000000,
100000000000200000001000200000002000200000000000,
100000000000200000001000200000002000200000000000,
100000002000200000001000200000001000200000000000,
100000002000200000001000200000001000200000000000,
600000000000000000000000000000000008000000000000,
000000000000300000000000000000000000300000000000,
100000002000100000001000200000002000200000000000,
100000002000100000001000200000002000200000000000,
100020001000100000001000200000002000100000000000,
100020001000100000001000200000002000100000000000,
100020001000200000002000100000001000200000000000,
100020001000200000002000100000001000200000000000,
700000000000000000000000000000000000000000000008,
#END
COURSE:Hard
LEVEL:4
BALLOON:20,10,14
SCOREINIT:760
SCOREDIFF:180
#START
100000001000100000000000100000001000100000000000,
100000001000200000000000100000000000200000000000,
100000001000100000000000100000001000100000000000,
100000001000200000000000100000000000200000000000,
200000002000200000000000200000000000200000000000,
200000002000200000000000200000002000200000000000,
200000002000200000000000200000000000200000000000,
200000002000200000000000200000002000200000000000,
300000000000300000000000000000001000100000000000,
300000000000000000001000100000000000100000000000,
100000000000100000001000100000000000100000000000,
100000000000100000001000100000000000100000000000,
200000000000200000002000200000000000200000000000,
200000000000200000002000200000000000200000000000,
100000000000100000001000200000000000100000000000,
100000000000100000001000200000000000100000000000,
200000000000200000002000200000000000200000000000,
200000000000200000002000200000000000200000000000,
100000001000000010000000100000001000000010000000,
100000001000000010000000100000001000000010000000,
100000001000000010000000100000001000000010000000,
100000001000000010000000100000001000000010000000,
300000000000100000001000100000000000100000000000,
300000000000100000001000100000000000100000000000,
700000000000000000000000000000000000000000000000,
000000000000000000000000800000000000000000000000,
100000001000100000002000000000001000100000000000,
100000001000100000002000000000001000100000000000,
200000000000200000002000200000000000200000000000,
200000000000200000002000200000000000200000000000,
100000000000100000001000200000002000100000000000,
100000000000100000001000200000002000100000000000,
200000000000200000002000200000000000200000000000,
200000000000200000002000200000000000200000000000,
100000001000000010000000100000001000000010000000,
100000001000000010000000100000001000000010000000,
100000001000000010000000100000001000000010000000,
100000001000000010000000100000001000000010000000,
300000000000100000001000100000001000100000000000,
300000000000100000001000100000001000100000000000,
700000000000000000000000000000008000000000000000,
100000000000200000001000100000000000100000000000,
100000000000200000001000100000000000100000000000,
100000000000200000001000100000000000200000000000,
100000000000200000001000100000000000200000000000,
100000000000200000001000100000001000100000000000,
100000000000200000001000100000001000100000000000,
600000000000000000000000000000008000000000000000,
000000000000300000000000000000000000300000000000,
100000002000200000001000100000002000200000000000,
100000002000200000001000100000002000200000000000,
100000001000100000001000200000002000100000000000,
100000001000100000001000200000002000100000000000,
100000001000200000002000100000001000200000000000,
100000001000200000002000100000001000200000000000,
700000000000000000000000000000000000000000008000,
#END
COURSE:Normal
LEVEL:3
BALLOON:16,12
SCOREINIT:1200
SCOREDIFF:370
#START
100000000000100000000000100000000000000000000000,
100000001000100000000000100000000000000000000000,
100000000000100000000000100000000000000000000000,
100000001000100000000000100000000000000000000000,
200000000000200000000000200000000000000000000000,
200000002000200000000000200000000000000000000000,
200000000000200000000000200000000000000000000000,
200000002000200000000000200000000000000000000000,
100000000000100000000000000000000000000000000000,
100000000000000000000000100000000000100000000000,
100000000000000000000000100000000000000000000000,
100000000000000000000000100000000000000000000000,
200000000000200000002000200000000000000000000000,
200000000000200000002000200000000000000000000000,
100000000000100000000000100000000000000000000000,
100000000000100000000000100000000000000000000000,
200000000000200000002000200000000000000000000000,
200000000000200000002000200000000000000000000000,
100000000000100000000000100000000000000000000000,
500000000000000000008000000000000000000000000000,
000000000000100000000000100000000000100000000000,
500000000000000000008000000000000000000000000000,
300000000000100000001000100000000000100000000000,
300000000000100000001000100000000000100000000000,
700000000000000000000000000000000000000000000000,
000000000000000000000000800000000000000000000000,
100000000000000000000000200000000000000000000000,
100000000000000000000000200000000000000000000000,
200000000000200000002000200000000000000000000000,
200000000000200000002000200000000000000000000000,
100000000000100000000000200000000000000000000000,
100000000000100000000000200000000000000000000000,
200000000000200000002000200000000000000000000000,
200000000000200000002000200000000000000000000000,
100000000000100000000000200000000000000000000000,
500000000000000000008000000000000000000000000000,
000000000000100000000000100000000000200000000000,
500000000000000000008000000000000000000000000000,
300000000000100000001000100000000000200000000000,
300000000000100000001000100000000000200000000000,
300000000000000000000000000000000000000000000000,
100000000000000000000000100000000000100000000000,
100000000000000000000000100000000000000000000000,
100000000000000000000000100000000000100000000000,
100000000000000000000000100000000000000000000000,
100000000000000000000000100000001000000000000000,
100000000000100000000000100000000000100000000000,
600000000000000000000000000000008000000000000000,
000000000000300000000000000000000000300000000000,
100000000000000000000000100000000000100000000000,
100000000000000000000000100000000000000000000000,
100000000000000000000000100000000000100000000000,
100000000000000000000000100000000000000000000000,
100000000000000000000000100000000000100000000000,
100000000000100000000000100000001000000000000000,
700000000000000000000000000000000000000000008000,
#END
COURSE:Easy
LEVEL:4
BALLOON:10
SCOREINIT:1080
SCOREDIFF:350
#START
100000000000000000000000200000000000000000000000,
100000000000100000000000100000000000000000000000,
100000000000000000000000200000000000000000000000,
100000000000100000000000100000000000000000000000,
200000000000000000000000200000000000000000000000,
200000000000200000000000200000000000000000000000,
200000000000000000000000200000000000000000000000,
200000000000200000000000200000000000000000000000,
100000000000100000000000000000000000100000000000,
100000000000000000000000100000000000100000000000,
100000000000100000000000200000000000000000000000,
100000000000100000000000200000000000000000000000,
200000000000000000000000200000000000000000000000,
200000000000000000000000200000000000200000000000,
100000000000000000000000200000000000100000000000,
100000000000000000000000200000000000100000000000,
200000000000000000000000200000000000000000000000,
200000000000000000000000200000000000200000000000,
100000000000100000000000100000000000000000000000,
200000000000000000000000200000000000000000000000,
100000000000100000000000100000000000000000000000,
200000000000000000000000200000000000000000000000,
300000000000100000000000100000000000000000000000,
300000000000100000000000100000000000000000000000,
500000000000000000008000000000000000000000000000,
000000000000000000000000000000000000000000000000,
100000000000200000000000000000000000000000000000,
100000000000200000000000000000000000000000000000,
200000000000200000000000200000000000000000000000,
200000000000000000000000200000000000200000000000,
100000000000200000000000000000000000100000000000,
100000000000200000000000000000000000100000000000,
200000000000200000000000200000000000000000000000,
200000000000000000000000200000000000200000000000,
100000000000200000000000100000000000000000000000,
100000000000000000000000200000000000000000000000,
100000000000200000000000100000000000000000000000,
100000000000000000000000200000000000000000000000,
300000000000100000000000100000000000000000000000,
300000000000100000000000100000000000000000000000,
500000000000000000008000000000000000000000000000,
100000000000000000000000100000000000100000000000,
100000000000200000000000100000000000000000000000,
100000000000000000000000100000000000100000000000,
100000000000200000000000100000000000000000000000,
100000000000000000000000100000000000200000000000,
100000000000000000000000100000000000200000000000,
500000000000000000008000000000000000000000000000,
000000000000300000000000000000000000300000000000,
100000000000000000000000100000000000100000000000,
100000000000000000000000200000000000000000000000,
100000000000000000000000100000000000100000000000,
100000000000000000000000200000000000000000000000,
100000000000000000000000100000000000100000000000,
100000000000000000000000100000000000100000000000,
700000000000000000000000000000000000000000008000,
#END