Files
ESE-ja-fix/01 Pop/Kirari/Kirari.tja
T
2023-01-17 00:45:18 -05:00

287 lines
10 KiB
Plaintext

//TJADB Project
TITLE:Kirari
TITLEJA:きらり
SUBTITLE:--Fujii Kaze
SUBTITLEJA:藤井 風
BPM:117
WAVE:Kirari.ogg
OFFSET:-2.186
DEMOSTART:67.314
COURSE:Oni
LEVEL:7
BALLOON:7,7,13,45
SCOREINIT:980
SCOREDIFF:270
#START
100000000000200000100100000000100100200000100000,
100000000000200000100100000000100000200000100000,
100000000100100000000000000000000000200000100100,
200000000000200000000000100000100000200000100000,
100000000000200000100100000000100100200000100000,
100000000000200000100100000000100000200000100000,
100000000100100000000000000000000000200000100100,
200000000000200000000000100000100000200000100000,
100000000000200000100100000000100100200000100000,
100000000000200000100100000000100000200000100000,
500000000000000000000000000008000000200000000000,
200000000000200000100000100000100000200000200200,
100000000000200000100100000000200100200000100000,
100000000000200000100100000000100000200000100000,
500000000000000000000000000008000000200000000000,
100000000000100000100100200000000000200000000000,
100000000000200000100100200000200100100000200000,
100000000000200000100100200000200100100000200000,
200000100100200000000000100000000000200000200200,
700000000000000000000000800000100000100000200000,
100000000000200000100100200000200100100000200000,
100000000000200000100100200000200100100000200000,
200000100100200000000000100000000000200000200200,
700000000000000000000000800000100000100000200000,
100000000000200000100100200000100100200000100000,
100000000000200000100100200000100100200000200000,
500000000000000000000000000008000000200000000000,
200000000000200000100000200000100000200200200000,
100000000000200000100100200000100100200000100000,
100000000000200000100100200000100100200000200000,
500000000000000000000000000008000000200000000000,
70000800,
#GOGOSTART
300000100000200000000100000000200000100200100000,
100000100000200000000100000000100000200100200000,
500000000000000000000000000008000000200200200000,
500000000000000000000000000008000000200200200000,
100000100000200000000100000000200000100200100000,
100000100000200000000100000000100000200100200000,
500000000000000000000000000008000000200200200000,
500000000000000000000000000008000000200200200000,
300000000000200000100200100000200100100000200000,
100000000000200000100200100000200200100000200000,
100000000000200000100200100000200100100000200000,
100000200100100000200000100000200100100000200000,
100000000000200000100200100000200100100000200000,
100000000000200000100200100000200200100000200000,
100000000000200000100200100000200100100000200000,
7,
0008,
#GOGOEND
#END
COURSE:Hard
LEVEL:6
BALLOON:9,9,9,34
SCOREINIT:1080
SCOREDIFF:320
#START
100000000000100000000000000000100000100000000000,
100000000000100000000000000000100000100000000000,
100000000000100000000000000000000000200000200000,
200000000000200000000000100000000000100000000000,
100000000000100000000000000000100000100000000000,
100000000000100000000000000000100000100000000000,
100000000000100000000000000000000000200000200000,
200000000000200000000000100000000000100000100000,
100000000000200000000000000000100000200000000000,
100000000000200000000000000000100000200000000000,
500000000000000000000000000080000000000000000000,
200000000000200000100000100000100000200000000000,
100000000000200000000000000000100000200000000000,
100000000000200000000000000000100000200000000000,
500000000000000000000000000080000000000000000000,
100000000000100000100100100000000000200000000000,
100000000000100000100100100000100000100000000000,
100000000000100000100100100000100000100000000000,
100000100100100000000000100000000000200000200000,
700000000000000000000000000000000000000000000000,
000000000000800000000000000000000000000000000000,
100000000000100000100100100000100000100000000000,
100000000000100000100100100000100000100000000000,
100000100100100000000000100000000000200000200000,
700000000000000000000000000000000000000000000000,
000000000000800000000000000000000000000000000000,
100000000000200000100100100000100000200000000000,
100000000000200000100100100000100000200000000000,
500000000000000000000000000080000000000000000000,
200000000000200000100000100000100000200000000000,
100000000000200000100100100000100000200000000000,
100000000000200000100100100000100000200000000000,
500000000000000000000000000080000000000000000000,
70000800,
#GOGOSTART
300000000000100000000100000000200000100100100000,
100000000000100000000100000000100000200000200000,
500000000000000000000080000000000000200000200000,
500000000000000000000080000000000000200000200000,
100000000000100000000100000000200000100100100000,
100000000000100000000100000000100000200000200000,
500000000000000000000080000000000000200000200000,
500000000000000000000080000000100000200000200000,
300000000000200000100100100000100000100000200000,
100000000000200000100100100000100000100000200000,
100000000000200000100100100000100000100000200000,
200000100100000000000000200000100100000000000000,
100000000000200000100100100000100000100000200000,
100000000000200000100100100000100000100000200000,
100000000000200000100100100000100000100000200000,
900000000000000000000000000000000000000000000000,
000000000000000000000000000000000000000000000008,
#GOGOEND
#END
COURSE:Normal
LEVEL:4
BALLOON:7,7,7,24
SCOREINIT:1070
SCOREDIFF:365
#START
100000000000100000000000000000000000100000000000,
100000000000100000000000000000000000100000000000,
100000000000100000000000000000000000200000000000,
200000000000000000000000100000000000100000000000,
100000000000100000000000000000000000100000000000,
100000000000100000000000000000000000100000000000,
100000000000100000000000000000000000200000000000,
200000000000000000000000100000000000100000100000,
100000000000200000000000000000000000200000000000,
100000000000200000000000000000000000200000000000,
500000000000000000000000000080000000000000000000,
200000000000200000000000200000200000200000000000,
100000000000200000000000000000000000200000000000,
100000000000200000000000000000000000200000000000,
500000000000000000000000000080000000000000000000,
100000000000100000000000200000000000000000000000,
100000000000100000100000100000000000100000000000,
100000000000100000100000100000000000100000000000,
100000000000000000000000100000000000200000000000,
700000000000000000000000000000000000000000000000,
000000000000800000000000000000000000000000000000,
100000000000100000100000100000000000100000000000,
100000000000100000100000100000000000100000000000,
100000000000000000000000100000000000200000000000,
700000000000000000000000000000000000000000000000,
000000000000800000000000000000000000000000000000,
100000000000200000100000100000000000200000000000,
100000000000200000100000100000000000200000000000,
500000000000000000000000000080000000000000000000,
200000000000200000000000200000200000200000000000,
100000000000200000100000100000000000200000000000,
100000000000200000100000100000000000200000000000,
500000000000000000000000000080000000000000000000,
70000800,
#GOGOSTART
300000000000100000000100000000000000100000100000,
100000000000100000000100000000000000200000200000,
500000000000000000000080000000000000200000200000,
500000000000000000000080000000000000000000000000,
100000000000100000000100000000000000100000100000,
100000000000100000000100000000000000200000200000,
500000000000000000000080000000000000200000200000,
500000000000000000000080000000000000000000000000,
300000000000200000100000100000000000100000100000,
100000000000200000100000100000000000100000100000,
100000000000200000100000100000000000100000100000,
200000000000000000000000200000000000000000000000,
100000000000200000100000100000000000100000100000,
100000000000200000100000100000000000100000100000,
100000000000200000100000100000000000100000100000,
900000000000000000000000000000000000000000000000,
000000000000000000000000000000000000000000000008,
#GOGOEND
#END
COURSE:Easy
LEVEL:3
BALLOON:5,5,5,20
SCOREINIT:1140
SCOREDIFF:700
#START
100000000000000000000000000000000000100000000000,
100000000000000000000000000000000000100000000000,
100000000000000000000000000000000000200000000000,
200000000000000000000000000000000000100000000000,
100000000000000000000000000000000000100000000000,
100000000000000000000000000000000000100000000000,
100000000000000000000000000000000000200000000000,
200000000000000000000000000000000000100000000000,
100000000000100000000000000000000000000000000000,
100000000000100000000000000000000000000000000000,
500000000000000000000000000080000000000000000000,
200000000000200000000000200000000000000000000000,
100000000000100000000000000000000000000000000000,
100000000000100000000000000000000000000000000000,
500000000000000000000000000080000000000000000000,
100000000000000000000000200000000000000000000000,
100000000000000000000000100000000000100000000000,
100000000000000000000000100000000000100000000000,
100000000000000000000000000000000000000000000000,
700000000000000000000000000000000000000000000000,
000000000000800000000000000000000000000000000000,
100000000000000000000000100000000000100000000000,
100000000000000000000000100000000000100000000000,
100000000000000000000000000000000000000000000000,
700000000000000000000000000000000000000000000000,
000000000000800000000000000000000000000000000000,
100000000000100000000000100000000000000000000000,
100000000000100000000000100000000000000000000000,
500000000000000000000000000080000000000000000000,
200000000000200000000000200000000000000000000000,
100000000000100000000000100000000000000000000000,
100000000000100000000000100000000000000000000000,
500000000000000000000000000080000000000000000000,
70000800,
#GOGOSTART
300000000000100000000100000000000000000000000000,
100000000000100000000100000000000000000000000000,
500000000000000000000080000000000000000000000000,
500000000000000000000080000000000000000000000000,
100000000000100000000100000000000000000000000000,
100000000000100000000100000000000000000000000000,
500000000000000000000080000000000000000000000000,
500000000000000000000080000000000000000000000000,
300000000000000000000000100000000000100000000000,
100000000000000000000000100000000000100000000000,
100000000000000000000000100000000000100000000000,
200000000000000000000000200000000000000000000000,
100000000000000000000000100000000000100000000000,
100000000000000000000000100000000000100000000000,
100000000000000000000000100000000000100000000000,
900000000000000000000000000000000000000000000000,
000000000000000000000000000000000000000000000008,
#GOGOEND
#END