Files
ESE-ja-fix/01 Pop/LIFE/LIFE.tja
T
2023-06-15 19:15:39 -05:00

269 lines
9.9 KiB
Plaintext

//TJADB Project
TITLE:LIFE
TITLEJA:LIFE
SUBTITLE:--Kimaguren/PVTV
BPM:127
WAVE:LIFE.ogg
OFFSET:-1.991
DEMOSTART:74.746
COURSE:Oni
LEVEL:8
SCOREINIT:760
SCOREDIFF:180
#START
000000000000000000000000000000000000000000000000,
300000000300000000400000000000000000000000000000,
000000000000000000000000000000000000000000000000,
100000100100100000200200100000200000100000000000,
100000100100100000200200100000200000100000200000,
100000100100100000200200100000200000100000000000,
100000100100100000200200100000200000100000200000,
100000100100200000200000100000100100100000200000,
100000100100200000200000100000200200200000200000,
100000100100200000200000100000100100100000200000,
100000100100200000200000100000200200200000200000,
100000100100200000200000100000100100100000200000,
100000100100200000200000100000200000200200200200,
100000100100200000100000300000100100100000200000,
400000100100200000200000100100100100200200200200,
100000100100100000200000100100100100200000000000,
300000000000300000000000300000200100200000000000,
100000100100100000200000100100100100200000000000,
300000000000000000300000300000200100200000000000,
100000100100100000200000100100100100200000000000,
100000100100100000200000100100200100200000000000,
100000100100100000200000100100100100200000000000,
100000100100100000200000100100200100200000000000,
100000100100200000200000100000100100100000200000,
100000100100200000200000100000200200200000200000,
100000100100200000200000100000100100100000200000,
100000100100200000200000100000200000000000000000,
100000200100100000200000100000100100200000200000,
100000200100100100200000100000100100200100200000,
100000200100100000200000100000100100200000200000,
100000200100100000200000100200100200100100200200,
100000000200000000200000100000200000200000100100,
100000000200000000200000100000200000200000200200,
100000000100000000200000100000200000200000100100,
100000000100000000200000100000200000200000200200,
100000000100000000200000100000200000200000100100,
100000000100000000200000100000200000200000200200,
100000000100000000200000100000200000200000300000,
000000300000000000300000400000000000000000000000,
#GOGOSTART
100000200100100000200000100000200100100000200000,
100000200100100000200200100000200100100200200100,
100000200100100000200000100000200100100000200000,
100000200100100000200200100000200100100200200100,
100000200100100000200000100000200100100000200200,
100000200100100000200200100000200100100200200100,
100000200100100000200000100000200100100000200200,
100000000000000000000000000000000000000000000000,
#GOGOEND
#END
COURSE:Hard
LEVEL:6
BALLOON:5,5
SCOREINIT:830
SCOREDIFF:210
#START
000000000000000000000000000000000000000000000000,
300000000300000000400000000000000000000000000000,
000000000000000000000000000000000000000000000000,
100000100100100000100000100000000000000000000000,
100000100100100000100000100000000000200000000000,
100000100100100000100000100000000000000000000000,
100000100100100000100000100000000000200000000000,
100000100000200000200000100000100000200000000000,
100000200000100000200000100000100000200000000000,
100000100000200000200000100000100000200000000000,
100000200000100000200000100000100000200000000000,
100000100000200000200000100000100000200000000000,
100000200000100000200000100000100000200000200000,
000000000000000000300000300000000000000000400000,
400000000000000000300000300000300000000000000000,
500000000000000800000000300000000000000000000000,
300000000000300000000000300000200200200000000000,
500000000000000800000000300000000000000000000000,
300000000000000000300000300000200200200000000000,
700000000000000800000000300000100100100000000000,
300000000000300000000000300000200200200000000000,
700000000000000800000000300000100100100000000000,
400000000000400000000000400000200200200000000000,
100000100000200000200000100000100000200000200000,
100000200000100000200000100000100000200000200000,
100000100000200000200000100000100000200000200000,
100000200000100000200000100000100000000000000000,
100000100100100000100000000000100100100000100000,
000000100100100000100000000000100100100000100000,
000000100100100000100000100000100100100000100000,
500000000000000000000800000000000000000000000000,
100000000200000000200000000000200000200000200000,
100000000200000000200000000000100000200000200000,
100000000100000000200000000000200000200000200000,
100000000100000000200000000000100000200000200000,
100000000100000000200000000000200000200000200000,
100000000100000000200000100000100000200000200000,
000000500000000000000000000000000800000000300000,
000000300000000000300000400000000000000000000000,
#GOGOSTART
100000100100100000100000100000100100100000100000,
100000100100100000100000100000100100100000100000,
100000100100100000100000100000100100100000100000,
300000000000300000000000300000300000400000400000,
600000000800000000000000000000100000100000200000,
000000100000200000100000000000100000100000200000,
000000000000000000100000100000200000100000100000,
200000000000000000000000000000000000000000000000,
#GOGOEND
#END
COURSE:Normal
LEVEL:5
BALLOON:8
SCOREINIT:1160
SCOREDIFF:380
#START
000000000000000000000000000000000000000000000000,
500000000000000000000000000000800000000000000000,
000000000000000000000000000000000000000000000000,
100000000000100000100000100000000000200000000000,
100000000000100000100000100000000000000000000000,
100000000000100000100000100000000000200000000000,
100000000000100000100000100000000000000000000000,
100000000000100000000000100000000000200000000000,
100000000000100000000000200000000000200000000000,
100000000000100000000000100000000000200000000000,
000000000000000000000000200000000000200000000000,
100000000000100000000000100000000000200000000000,
100000000000100000000000200000000000200000000000,
000000000000000000000000300000000000000000000000,
400000000000000000000000300000300000000000000000,
500000800000000000000000300000000000000000000000,
300000000000300000000000300000000000000000000000,
500000800000000000000000300000000000000000000000,
300000000000000000300000300000000000000000000000,
500000800000000000000000300000000000000000000000,
300000000000300000000000300000000000000000000000,
500000800000000000000000300000000000000000000000,
400000000000400000000000400000000000000000000000,
100000000000100000000000100000000000200000000000,
100000000000100000000000200000000000200000000000,
100000000000100000000000100000000000200000000000,
100000000000100000000000200000000000000000000000,
100000000000200000000000000000000000200000000000,
100000000000200000000000000000000000200000000000,
100000000000200000000000100000000000200000000000,
500000000000000000800000000000000000000000000000,
100000000000000000000000200000200000200000000000,
100000000000000000000000200000000000200000000000,
100000000000000000000000200000200000200000000000,
100000000000000000000000200000000000200000000000,
100000000000000000000000200000200000200000000000,
100000000000000000000000200000000000200000000000,
500000000000000000000000800000000000000000000000,
000000000000000000000000400000000000400000000000,
#GOGOSTART
400000000000000000000000300000000000300000000000,
300000000000000000000000400000000000400000000000,
400000000000000000000000100000000000100000000000,
300000000000300000000000300000000000300000000000,
600000800000000000000000000000000000000000000000,
100000000000200000000000100000000000200000000000,
100000000000000000900000000000000000000000000000,
08,
#GOGOEND
#END
COURSE:Easy
LEVEL:3
BALLOON:7
SCOREINIT:870
SCOREDIFF:340
#START
000000000000000000000000000000000000000000000000,
500000000000000000000000000000800000000000000000,
000000000000000000000000000000000000000000000000,
100000000000000000000000100000000000000000000000,
100000000000000000000000200000000000000000000000,
100000000000000000000000100000000000000000000000,
100000000000000000000000200000000000000000000000,
100000000000100000000000100000000000000000000000,
200000000000200000000000200000000000000000000000,
100000000000100000000000100000000000000000000000,
000000000000000000000000400000000000000000000000,
100000000000100000000000100000000000000000000000,
200000000000200000000000200000000000000000000000,
000000000000000000000000300000000000000000000000,
400000000000000000000000300000000000000000000000,
500000800000000000000000300000000000000000000000,
300000000000300000000000300000000000000000000000,
500000800000000000000000300000000000000000000000,
300000000000000000000000300000000000000000000000,
500000800000000000000000300000000000000000000000,
300000000000300000000000300000000000000000000000,
500000800000000000000000300000000000000000000000,
300000000000300000000000300000000000000000000000,
100000000000100000000000100000000000000000000000,
200000000000200000000000200000000000000000000000,
100000000000100000000000100000000000000000000000,
000000000000000000000000300000000000000000000000,
200000000000200000000000000000000000200000000000,
000000000000200000000000000000000000200000000000,
000000000000200000000000200000000000200000000000,
500000000000000000800000000000000000000000000000,
100000000000000000000000200000000000000000000000,
100000000000000000000000200000000000200000000000,
100000000000000000000000200000000000000000000000,
100000000000000000000000200000000000200000000000,
100000000000000000000000200000000000000000000000,
100000000000000000000000200000000000200000000000,
500000000000000000000000800000000000000000000000,
000000000000000000000000400000000000400000000000,
#GOGOSTART
400000000000000000000000300000000000300000000000,
300000000000000000000000400000000000400000000000,
400000000000000000000000000000000000000000000000,
300000000000300000000000300000000000300000000000,
600000800000000000000000000000000000000000000000,
200000000000000000000000200000000000200000000000,
200000000000000000900000000000000000000000000000,
08,
#GOGOEND
#END