Files
ESE-ja-fix/01 Pop/LOVE 2000/LOVE 2000.tja
T
2023-06-15 19:00:23 -05:00

417 lines
6.3 KiB
Plaintext

//TJADB Project
TITLE:LOVE 2000
TITLEJA:LOVE 2000
SUBTITLE:--hitomi/Geki Kuukan Puroyagu 2000
BPM:170
WAVE:LOVE 2000.ogg
OFFSET:-1.560
DEMOSTART:89.780
COURSE:Oni
LEVEL:6
BALLOON:20
SCOREINIT:540
SCOREDIFF:130
#START
,
,
,
,
,
,
100000100000000000200000200000100000100000000000,
100000200000100000200000100000000000200000100000,
000000200000000000100000200000100000200000000000,
100000200000100000200000100000000000200000100000,
000000200000000000100000200000200000100000200000,
100000200000100000200000100000000000200000100000,
000000200000000000100000200000100000200000000000,
100000100000100000100000100000100000000000200000,
000000000000000000100100100000100000100000100000,
#GOGOSTART
100000000000200000100000000000100000200000100100,
100000100000200000100000000000100000200000000000,
100000000000200000100000100000100000200000100000,
000000100000200000100000100000100100200000200000,
100000000000200000100000000000100000200000100100,
100000100000200000100000000000100000200000000000,
100000000000200000100000000000100000200000100000,
000000100000200000000000100000100100200000200000,
100000000000200000100000000000100000200000100100,
100000100000200000100000000000100000200000000000,
100000000000200000100000100000100000200000100000,
000000100000200000100000100000100100200000200000,
100000000000200000100000000000100000200000100100,
100000100000200000100000000000100000200000000000,
100000000000200000100000000000100000200000100000,
100000100000200000000000100100100100200000000000,
#GOGOEND
100000200000100000200000100000000000200000100000,
000000100000200000100000000000100000200000000000,
100000200000100000200000100000000000200000100000,
000000100000200000100000000000100100200000000000,
200000100000200000100000200000000000200000100000,
000000100000200000100000200000100000200000000000,
200000100000200000100000200000000000200000100000,
100000100000200200100000000000200000100000000000,
100000100000200000100000000000100000200000000000,
100000000000200000100000000000100000200000000000,
100000100000200000100000000000100000200000000000,
100000000000200000100000000000100100200000000000,
100000100000200000100000000000100000200000000000,
100000000000200000100000000000100000200000000000,
100000100000200000100000000000100000200000000000,
100000000000200000100000000000100100200000200000,
100000000000200000100000100000000000200000000000,
100000000000200000100000100000100100200000000000,
100000000000200000100000100000000000200000000000,
100000000000200000100000100000100100200000200000,
100000000000200000100000100000000000200000000000,
100000000000200000100000100000100100200000000000,
100000000000200000100000100000000000200000000000,
100000100000200000100100100000100000100000100000,
100000000000200000100000000000100000200000100100,
100000100000200000100000000000100000200000100000,
100000000000200000100000100000100000200000100100,
100000100000200000100000000000100000200000000000,
100000000000200000100000000000100000200000100100,
100000100000200000100000000000100100200000200000,
500000000000000000000008000000000000400000100000,
400000100000400000000000100100100100100000000000,
#GOGOSTART
100000000000200000100000100000100100200000100100,
100000100000200000100000100100100000200000000000,
100000100000200000100100100000100000200000100000,
200000100100200000100000100000100100200000200000,
100000000000200000100100100000100000200000100100,
100000100000200000100000100100100000200000000000,
100000200000100100100000000000100000200000100100,
100000100000200000200000100000100100200000200000,
100000000000200000100000100000100100200000100100,
100000100000200000100000100100100000200000000000,
100000100000200000100100100000100000200000100000,
200000100100200000100000100000100100200000200000,
100000000000200000100100100000100000200000100100,
100000100000200000100000100100100000200000000000,
100000200000100100100000000000100000200000100000,
700000000000000000000000000000000000000000000008,
#GOGOEND
#END
COURSE:Hard
LEVEL:5
BALLOON:16
SCOREINIT:550
SCOREDIFF:150
#START
,
,
,
,
,
,
11022010,
11221001,
01010100,
11221001,
01010100,
11221001,
01010100,
11111100,
0033,
#GOGOSTART
30201120,
11211020,
1000201110100010,
10201120,
10201120,
11210120,
10210121,
1033,
30201120,
11210120,
1000201110100010,
10201120,
10201120,
11210120,
10210121,
5008,
#GOGOEND
11221001,
01010100,
11221001,
01010100,
22112002,
02020200,
22112002,
02020210,
10010120,
10210020,
10010120,
10210020,
10010120,
10210020,
10011120,
10210020,
10201110,
10210110,
10201110,
10210110,
10201110,
10210110,
10211020,
1000201110101000,
10211021,
01201020,
10211021,
01201020,
10211021,
01210122,
5084,
4033,
#GOGOSTART
30201120,
11211020,
1000201110100010,
10201120,
10201120,
11210120,
10210121,
1233,
30201120,
11211020,
1000201110100010,
10201120,
10201120,
11210120,
10210122,
700000000000000000000000000000000000000000000008,
#GOGOEND
#END
COURSE:Normal
LEVEL:4
BALLOON:9
SCOREINIT:760
SCOREDIFF:200
#START
,
,
,
,
,
,
43,
1110,
22,
1110,
22,
1110,
22,
1110,
0033,
#GOGOSTART
31,
10111010,
10001100,
1011,
11,
10111000,
10110100,
1033,
31,
10111010,
10001100,
1011,
11,
10111000,
10111000,
50000800,
#GOGOEND
1110
22,
1110,
22,
2220,
11,
2220,
1,
1110,
1120,
1110,
1120,
1110,
1111,
10011000,
1,
1120,
1120,
1120,
1122,
1120,
1120,
5,
8,
10101101,
03,
10101101,
02,
10101101,
0022,
50000800,
1033,
#GOGOSTART
31,
10111000,
10101101,
1022,
11,
10111000,
10110110,
1033,
31,
10111000,
10101101,
0022,
11,
10111000,
10110100,
700000000000000000000000000000000000000000000008,
#GOGOEND
#END
COURSE:Easy
LEVEL:3
BALLOON:5
SCOREINIT:660
SCOREDIFF:200
#START
,
,
,
,
,
,
3,
11,
2,
11,
2,
11,
2,
11,
,
#GOGOSTART
34,
1110,
1011,
1,
12,
1110,
1111,
1,
34,
1110,
1011,
1,
12,
1110,
33,
60000800,
#GOGOEND
11,
2,
11,
2,
11,
2,
11,
2,
11,
12,
11,
1,
11,
12,
1110,
,
11,
12,
11,
1110,
11,
12,
5000000000000008,
,
1110,
1,
2220,
2,
1110,
2220,
5000000000000008,
,
#GOGOSTART
34,
1110,
1111,
12,
12,
1110,
1111,
1,
34,
1110,
1111,
12,
12,
1110,
33,
700000000000000000000000000000000000000000000008,
#GOGOEND
#END