forked from ESE/ESE
560 lines
14 KiB
Plaintext
560 lines
14 KiB
Plaintext
//TJADB Project
|
|
TITLE:Loco-Lotion
|
|
TITLEJA:ロコローション
|
|
SUBTITLE:--ORANGE RANGE
|
|
BPM:140
|
|
WAVE:Loco-Lotion.ogg
|
|
OFFSET:-2.020
|
|
DEMOSTART:54.528
|
|
|
|
COURSE:Oni
|
|
LEVEL:7
|
|
SCOREINIT:610
|
|
SCOREDIFF:110
|
|
|
|
|
|
#START
|
|
|
|
|
|
,
|
|
,
|
|
,
|
|
10220120,
|
|
10220120,
|
|
10220120,
|
|
10222020,
|
|
10220120,
|
|
10220120,
|
|
10220120,
|
|
10202130,
|
|
|
|
#SECTION
|
|
#BRANCHSTART p,75,90
|
|
#N
|
|
11210101,
|
|
01112020,
|
|
11210101,
|
|
01112020,
|
|
11210101,
|
|
01112020,
|
|
11210103,
|
|
0000202210001000,
|
|
|
|
#E
|
|
11210101,
|
|
01112020,
|
|
11210101,
|
|
01112020,
|
|
11210101,
|
|
01112020,
|
|
11210103,
|
|
0000202210001000,
|
|
|
|
#M
|
|
11210101,
|
|
0011221020002000,
|
|
11210101,
|
|
0011221020002000,
|
|
11210101,
|
|
0011221020002000,
|
|
11210103,
|
|
0000202210001000,
|
|
|
|
#SECTION
|
|
#BRANCHSTART p,75,90
|
|
#N
|
|
10210121,
|
|
10202211,
|
|
10210121,
|
|
10201122,
|
|
10210121,
|
|
10202211,
|
|
10200121,
|
|
10201122,
|
|
11201120,
|
|
11211120,
|
|
30011001,
|
|
0010001011111111,
|
|
|
|
#E
|
|
1010201011102010,
|
|
1010200022201010,
|
|
1010201011102010,
|
|
1000101110102020,
|
|
1010201011102010,
|
|
1010200022201010,
|
|
1010201011102011,
|
|
1000101110102020,
|
|
1010201210102012,
|
|
11211120,
|
|
30011001,
|
|
0010001011111111,
|
|
|
|
#M
|
|
1010201012202210,
|
|
1010211220201010,
|
|
1000201012022010,
|
|
1022022010112210,
|
|
1010201012202210,
|
|
1010211220201010,
|
|
1000201012022010,
|
|
1022022011102110,
|
|
1010222010102210,
|
|
1120112022101010,
|
|
30011001,
|
|
0010001011111111,
|
|
|
|
#GOGOSTART
|
|
#SECTION
|
|
#BRANCHSTART p,75,90
|
|
#N
|
|
10101001,
|
|
01112020,
|
|
0011102010200010,
|
|
01111010,
|
|
10202001,
|
|
01112020,
|
|
01101101,
|
|
01111011,
|
|
|
|
#E
|
|
1020112010201120,
|
|
1110111020002000,
|
|
0011102011200010,
|
|
01111010,
|
|
1020112010201120,
|
|
1110111020002000,
|
|
0011102011200010,
|
|
01111011,
|
|
|
|
#M
|
|
1020120210201121,
|
|
1020112022112010,
|
|
1020120210201202,
|
|
1020112110003000,
|
|
1020120210201121,
|
|
1020112022112010,
|
|
1020120210201202,
|
|
1020112011201120,
|
|
|
|
|
|
#SECTION
|
|
#BRANCHSTART p,75,90
|
|
#N
|
|
11201122,
|
|
11210100,
|
|
#GOGOEND
|
|
11210101,
|
|
01112020,
|
|
11210101,
|
|
0000000000000011,
|
|
20101021,
|
|
|
|
#E
|
|
11201122,
|
|
11210100,
|
|
#GOGOEND
|
|
11210101,
|
|
01112020,
|
|
11210101,
|
|
2020202022200011,
|
|
20101121,
|
|
|
|
#M
|
|
11221112,
|
|
21120300,
|
|
#GOGOEND
|
|
11210101,
|
|
0011221020002000,
|
|
33430303,
|
|
2020202022222011,
|
|
20101121,
|
|
|
|
#SECTION
|
|
#BRANCHSTART p,75,90
|
|
#N
|
|
#MEASURE 2/4
|
|
0121,
|
|
#MEASURE 4/4
|
|
10202211,
|
|
10210121,
|
|
01212120,
|
|
10210121,
|
|
10112020,
|
|
10200121,
|
|
10201122,
|
|
11201120,
|
|
11211120,
|
|
30011001,
|
|
0010001011111111,
|
|
|
|
#E
|
|
#MEASURE 2/4
|
|
11102010,
|
|
#MEASURE 4/4
|
|
1010200022201010,
|
|
1010201011102010,
|
|
0121212,
|
|
1010201011102010,
|
|
11202020,
|
|
1010201011102011,
|
|
1000101110102020,
|
|
1010201210102012,
|
|
11211120,
|
|
30011001,
|
|
0010001011111111,
|
|
|
|
#M
|
|
#MEASURE 2/4
|
|
12202210,
|
|
#MEASURE 4/4
|
|
1010211220201010,
|
|
1000201012022010,
|
|
1011221122111000,
|
|
1010201012202210,
|
|
1010211040004000,
|
|
1000201012022010,
|
|
1022022011102211,
|
|
1010222010102210,
|
|
1120112022101010,
|
|
30011001,
|
|
0010001011111111,
|
|
|
|
#GOGOSTART
|
|
#SECTION
|
|
#BRANCHSTART p,75,90
|
|
#N
|
|
10101001,
|
|
01112020,
|
|
0011102010200010,
|
|
01111010,
|
|
10202001,
|
|
01112020,
|
|
01101101,
|
|
01111011,
|
|
|
|
#E
|
|
1020112010201120,
|
|
1110111020002000,
|
|
0011102011200010,
|
|
01111010,
|
|
1020112010201120,
|
|
1110111020002000,
|
|
0011102011200010,
|
|
01111011,
|
|
|
|
#M
|
|
1020120210201121,
|
|
1020112022112010,
|
|
1020120210201202,
|
|
1020112110003000,
|
|
1020120210201121,
|
|
1020112022112010,
|
|
1020120210201202,
|
|
1020112011201120,
|
|
|
|
#SECTION
|
|
#BRANCHSTART p,75,90
|
|
#N
|
|
11201122,
|
|
11210100,
|
|
#GOGOEND
|
|
11211212,
|
|
11211212,
|
|
11230303,
|
|
|
|
#E
|
|
11201122,
|
|
11210100,
|
|
#GOGOEND
|
|
11211212,
|
|
11211212,
|
|
11230303,
|
|
|
|
#M
|
|
11221112,
|
|
21120300,
|
|
#GOGOEND
|
|
11212212,
|
|
11212212,
|
|
33430303,
|
|
|
|
#BRANCHEND
|
|
|
|
|
|
#END
|
|
|
|
|
|
COURSE:Hard
|
|
LEVEL:4
|
|
SCOREINIT:610
|
|
SCOREDIFF:190
|
|
|
|
|
|
#START
|
|
|
|
|
|
000000000000000000000000000000000000000000000000,
|
|
000000000000000000000000000000000000000000000000,
|
|
000000000000000000000000000000000000000000000000,
|
|
000000000000200000000000200000000000000000000000,
|
|
000000000000200000200000000000000000200000000000,
|
|
000000000000200000200000000000000000200000000000,
|
|
000000000000200000200000000000000000200000000000,
|
|
000000000000200000000000200000000000000000000000,
|
|
000000000000200000200000000000000000200000000000,
|
|
000000000000200000200000000000000000200000000000,
|
|
100000000000000000000000000000000000000000000000,
|
|
100000100000100000100000000000100000000000100000,
|
|
000000100000100000100000200000000000200000000000,
|
|
100000100000100000100000000000100000000000100000,
|
|
000000100000100000100000200000000000200000000000,
|
|
100000100000100000100000000000100000000000100000,
|
|
000000100000100000100000200000000000200000000000,
|
|
100000100000100000100000000000100000000000300000,
|
|
000000000000000000000000000000000000000000000000,
|
|
100000000000200000000000000000100000200000000000,
|
|
100000000000200000000000000000100000100000000000,
|
|
100000000000200000000000000000100000200000000000,
|
|
100000000000200000000000100000100000100000100000,
|
|
100000000000200000000000000000100000200000000000,
|
|
100000000000200000000000000000100000100000000000,
|
|
100000000000200000000000000000100000200000000000,
|
|
100000000000200000000000000000100000100000000000,
|
|
100000100000000000000000100000100000000000000000,
|
|
100000000000100000000000100000000000100000000000,
|
|
300000000000000000100000100000000000000000100000,
|
|
000000100000000000100000500000000000000000000800,
|
|
#GOGOSTART
|
|
000000000000200000000000200000000000000000100000,
|
|
000000100000100000100000200000000000200000000000,
|
|
000000200000200000000000100000100000000000100000,
|
|
000000100000200000100000100000000000100000000000,
|
|
000000000000200000000000200000000000000000100000,
|
|
000000100000100000100000200000000000200000000000,
|
|
000000200000200000000000100000100000000000100000,
|
|
000000100000200000100000100000000000100000000000,
|
|
100000100000200000000000100000100000100000100000,
|
|
200000200000200000200000000000100000000000000000,
|
|
#GOGOEND
|
|
100000100000100000100000000000100000000000100000,
|
|
000000100000100000100000200000000000200000000000,
|
|
100000100000100000100000000000100000000000100000,
|
|
000000000000200000200000200000000000200000000000,
|
|
#MEASURE 2/4
|
|
000000000000000000000000,
|
|
#MEASURE 4/4
|
|
100000000000200000000000000000100000200000000000,
|
|
100000000000200000000000000000100000100000000000,
|
|
100000000000200000000000000000100000200000000000,
|
|
000000100000100000100000100000100000100000000000,
|
|
100000000000200000000000000000100000200000000000,
|
|
100000000000000000000000200000000000200000000000,
|
|
100000000000200000000000000000100000200000000000,
|
|
100000000000200000000000000000100000100000000000,
|
|
100000100000000000000000100000100000000000000000,
|
|
100000000000100000000000100000000000100000000000,
|
|
300000000000000000100000100000000000000000100000,
|
|
000000100000000000100000500000000000000000000800,
|
|
#GOGOSTART
|
|
000000000000200000000000200000000000000000100000,
|
|
000000100000100000100000200000000000100000000000,
|
|
000000200000200000000000100000100000000000100000,
|
|
000000100000200000100000100000000000100000000000,
|
|
000000000000200000000000200000000000000000100000,
|
|
000000100000100000100000200000000000200000000000,
|
|
000000200000200000000000100000100000000000100000,
|
|
000000100000200000100000100000000000100000000000,
|
|
100000100000200000000000100000100000100000100000,
|
|
200000200000200000200000000000100000000000000000,
|
|
#GOGOEND
|
|
100000100000200000100000100000200000100000200000,
|
|
100000100000200000100000100000200000100000200000,
|
|
100000100000200000300000000000300000000000300000,
|
|
|
|
|
|
#END
|
|
|
|
|
|
COURSE:Normal
|
|
LEVEL:4
|
|
SCOREINIT:620
|
|
SCOREDIFF:160
|
|
|
|
|
|
#START
|
|
|
|
|
|
000000000000000000000000000000000000000000000000,
|
|
000000000000000000000000000000000000000000000000,
|
|
000000000000000000000000000000000000000000000000,
|
|
000000000000200000000000200000000000000000000000,
|
|
000000000000200000000000200000000000200000000000,
|
|
000000000000200000200000000000000000000000000000,
|
|
000000000000200000000000200000000000200000000000,
|
|
000000000000200000000000200000000000000000000000,
|
|
000000000000200000000000200000000000200000000000,
|
|
000000000000200000200000000000000000000000000000,
|
|
100000000000000000000000000000000000000000000000,
|
|
100000000000100000100000000000100000000000100000,
|
|
000000000000200000200000200000000000200000000000,
|
|
100000000000100000100000000000100000000000100000,
|
|
000000000000200000200000200000000000200000000000,
|
|
100000000000100000100000000000100000000000100000,
|
|
000000000000200000200000200000000000200000000000,
|
|
100000100000100000100000000000100000000000300000,
|
|
000000000000000000000000000000000000000000000000,
|
|
100000000000100000000000100000100000000000000000,
|
|
100000000000100000000000100000100000000000000000,
|
|
100000000000100000000000100000100000000000000000,
|
|
100000000000100000000000100000000000000000000000,
|
|
100000000000100000000000100000100000000000000000,
|
|
100000000000100000000000100000100000000000000000,
|
|
100000000000100000000000100000100000000000000000,
|
|
100000000000100000000000100000000000000000000000,
|
|
100000100000000000000000100000100000000000000000,
|
|
100000000000100000000000100000000000000000000000,
|
|
300000000000000000100000100000000000000000100000,
|
|
000000100000000000500000000000000000000000000800,
|
|
#GOGOSTART
|
|
000000000000200000000000200000000000000000100000,
|
|
000000100000100000000000200000000000200000000000,
|
|
000000100000100000000000100000100000000000100000,
|
|
000000100000100000000000300000000000300000000000,
|
|
000000000000200000000000200000000000000000100000,
|
|
000000100000100000000000200000000000200000000000,
|
|
000000100000100000000000100000100000000000100000,
|
|
000000100000100000000000100000000000100000100000,
|
|
100000100000100000000000100000100000100000000000,
|
|
500000000000000000000000000000000800000000000000,
|
|
#GOGOEND
|
|
100000000000100000100000000000100000000000100000,
|
|
000000000000000000000000200000000000200000000000,
|
|
100000000000100000100000000000100000000000100000,
|
|
000000000000000000000000000000000000000000000000,
|
|
#MEASURE 2/4
|
|
000000000000000000000000,
|
|
#MEASURE 4/4
|
|
100000000000100000100000100000100000000000000000,
|
|
000000100000100000100000100000000000100000000000,
|
|
100000000000100000000000100000100000100000000000,
|
|
000000100000100000100000100000000000100000000000,
|
|
100000000000100000000000100000100000000000000000,
|
|
100000000000000000000000400000000000400000000000,
|
|
100000000000100000000000100000100000000000000000,
|
|
100000000000100000000000100000000000000000000000,
|
|
100000100000000000000000100000100000000000000000,
|
|
100000000000100000000000100000000000000000000000,
|
|
300000000000000000100000100000000000000000100000,
|
|
000000100000000000500000000000000000000000000800,
|
|
#GOGOSTART
|
|
000000000000200000000000200000000000000000100000,
|
|
000000100000100000000000200000000000200000000000,
|
|
000000100000100000000000100000100000000000100000,
|
|
000000100000100000000000300000000000300000000000,
|
|
000000000000200000000000200000000000000000100000,
|
|
000000100000100000000000200000000000200000000000,
|
|
000000100000100000000000100000100000000000100000,
|
|
000000100000100000000000300000000000300000100000,
|
|
100000100000100000000000100000100000100000000000,
|
|
500000000000000000000000000000000800000000000000,
|
|
#GOGOEND
|
|
100000100000100000100000100000100000000000000000,
|
|
100000100000100000100000100000100000000000000000,
|
|
100000100000100000300000000000300000000000300000,
|
|
|
|
|
|
#END
|
|
|
|
|
|
COURSE:Easy
|
|
LEVEL:3
|
|
SCOREINIT:730
|
|
SCOREDIFF:150
|
|
|
|
|
|
#START
|
|
|
|
|
|
000000000000000000000000000000000000000000000000,
|
|
000000000000000000000000000000000000000000000000,
|
|
000000000000000000000000000000000000000000000000,
|
|
000000000000200000000000200000000000000000000000,
|
|
000000000000000000000000200000000000200000000000,
|
|
000000000000000000000000000000000000000000000000,
|
|
000000000000200000000000200000000000200000000000,
|
|
000000000000200000000000200000000000000000000000,
|
|
000000000000000000000000200000000000200000000000,
|
|
000000000000000000000000000000000000000000000000,
|
|
100000000000000000000000000000000000000000000000,
|
|
000000000000100000000000100000000000000000000000,
|
|
000000000000200000000000200000000000000000000000,
|
|
000000000000100000000000100000000000000000000000,
|
|
000000000000200000000000200000000000000000000000,
|
|
000000000000100000000000100000000000000000000000,
|
|
000000000000200000000000200000000000000000000000,
|
|
100000000000000000000000000000000000000000300000,
|
|
000000000000000000000000000000000000000000000000,
|
|
100000000000000000000000100000100000000000000000,
|
|
100000000000000000000000100000000000000000000000,
|
|
100000000000000000000000100000100000000000000000,
|
|
100000000000100000000000100000000000000000000000,
|
|
100000000000000000000000100000100000000000000000,
|
|
100000000000000000000000100000000000000000000000,
|
|
100000000000000000000000100000100000000000000000,
|
|
100000000000100000000000100000000000000000000000,
|
|
100000000000000000000000100000000000000000000000,
|
|
100000000000100000000000100000000000000000000000,
|
|
300000000000000000000000100000000000000000000000,
|
|
100000000000500000000000000000800000000000000000,
|
|
#GOGOSTART
|
|
000000000000200000000000200000000000000000100000,
|
|
000000000000100000000000100000000000100000000000,
|
|
000000100000100000000000100000000000000000100000,
|
|
000000100000100000000000100000000000100000000000,
|
|
000000000000200000000000200000000000000000100000,
|
|
000000000000100000000000100000000000100000000000,
|
|
000000100000100000000000100000000000000000100000,
|
|
000000100000100000000000100000000000100000000000,
|
|
000000000000100000000000100000000000100000000000,
|
|
500000000000000000000000000000800000000000000000,
|
|
#GOGOEND
|
|
100000000000100000100000000000000000000000000000,
|
|
000000000000200000000000200000000000000000000000,
|
|
100000000000100000100000000000000000000000000000,
|
|
000000000000000000000000000000000000000000000000,
|
|
#MEASURE 2/4
|
|
000000000000000000000000,
|
|
#MEASURE 4/4
|
|
100000000000000000000000100000100000000000000000,
|
|
100000000000000000000000100000000000000000000000,
|
|
100000000000000000000000100000100000000000000000,
|
|
100000000000100000000000100000000000000000000000,
|
|
100000000000000000000000100000100000000000000000,
|
|
100000000000100000100000000000000000000000000000,
|
|
100000000000000000000000100000100000000000000000,
|
|
100000000000100000000000100000000000000000000000,
|
|
100000000000000000000000100000000000000000000000,
|
|
100000000000100000000000100000000000000000000000,
|
|
300000000000000000000000100000000000000000000000,
|
|
100000000000500000000000000000800000000000000000,
|
|
#GOGOSTART
|
|
000000000000200000000000200000000000000000100000,
|
|
000000000000100000000000100000000000100000000000,
|
|
000000100000100000000000100000000000000000100000,
|
|
000000100000100000000000100000000000100000000000,
|
|
000000000000200000000000200000000000000000100000,
|
|
000000000000100000000000100000000000100000000000,
|
|
000000100000100000000000100000000000000000100000,
|
|
000000100000100000000000100000000000100000000000,
|
|
000000000000100000000000100000000000100000000000,
|
|
500000000000000000000000000000800000000000000000,
|
|
#GOGOEND
|
|
000000000000000000000000000000000000000000000000,
|
|
300000000000000000000000000000000000000000000000,
|
|
300000000000000000300000000000300000000000300000,
|
|
|
|
|
|
#END
|
|
|