Files
ESE-ja-fix/01 Pop/Momoiro Taiko Dodon-ga Bushi/Momoiro Taiko Dodon-ga Bushi.tja
T
2023-06-15 19:15:39 -05:00

593 lines
18 KiB
Plaintext

//TJADB Project
TITLE:Momoiro Taiko Dodon-ga Bushi
TITLEJA:ももいろ太鼓どどんが節
SUBTITLE:--Momoiro Clover Z
SUBTITLEJA:ももいろクローバーZ
BPM:166.07
WAVE:Momoiro Taiko Dodon-ga Bushi.ogg
OFFSET:-1.780
DEMOSTART:61.733
COURSE:Oni
LEVEL:6
SCOREINIT:630
SCOREDIFF:140
#START
#GOGOSTART
#SCROLL 1.04
300000000000100000000000
#BPMCHANGE 165.92
#SCROLL 1
100000000000100000200000,
#BPMCHANGE 163.71
#SCROLL 1.01
300000000000100000000000
#BPMCHANGE 171.59
#SCROLL 0.97
100000200000100000000000,
#BPMCHANGE 165.06
#SCROLL 1.01
300000000000100000000000100000000000100000200000,
#BPMCHANGE 167.13
#SCROLL 0.99
300000000000100000200000100000200000400000000000,
#BPMCHANGE 169.73
#SCROLL 0.98
200000100000200000100000200000100000200000100000,
#BPMCHANGE 158.61
#SCROLL 1.05
000000300000
#BPMCHANGE 174.37
#SCROLL 0.95
300000300000
#BPMCHANGE 162.09
#SCROLL 1.02
300000000000000000000000,
#BPMCHANGE 165.92
#SCROLL 1
300000000000300000000000300000300000000000400000,
#GOGOEND
#BPMCHANGE 163.69
#SCROLL 1.01
000000200000200200100000100100200000200200100000,
#BPMCHANGE 165.51
#SCROLL 1
100000200200200000100000100000200200200000100000,
#BPMCHANGE 168.94
#SCROLL 0.98
000000000000400000400000600000000000000080000000,
#BPMCHANGE 166.67
#SCROLL 1
100000200200200000100000100000200200200000100000,
#BPMCHANGE 166.9
#SCROLL 0.99
000000000000400000400000600000000000000080000000,
#BPMCHANGE 164.4
#SCROLL 1.01
100000200200200000100000100000200200200000100000,
#BPMCHANGE 166.81
#SCROLL 0.99
000000100000200200100000100000200200200000100000,
#BPMCHANGE 163.86
#SCROLL 1.01
200000100000200200100000
#BPMCHANGE 170.22
#SCROLL 0.97
200000100100200000100000,
#BPMCHANGE 163.01
#SCROLL 1.02
000000000000
#BPMCHANGE 171.38
#SCROLL 0.97
300000300000
#BPMCHANGE 161.17
#SCROLL 1.03
400000000000000000000000,
#BPMCHANGE 166.17
#SCROLL 1
100000100100200000100000100000200200200000100000,
#BPMCHANGE 167.09
#SCROLL 0.99
000000000000400000400000400000000200200000200000,
#BPMCHANGE 164.93
#SCROLL 1.01
100000100100200000100000100000200200200000100000,
#BPMCHANGE 165.65
#SCROLL 1
000000000000400000400000400000000200200000200000,
#BPMCHANGE 166.35
100000100100200000100000100000200200200000100000,
#BPMCHANGE 168.16
#SCROLL 0.99
100000200200100000200000100000100100200000200000,
#BPMCHANGE 164.48
#SCROLL 1.01
100000000000100000000000200000200000000000100000,
#BPMCHANGE 167.86
#SCROLL 0.99
000000000000300000000000
#BPMCHANGE 164.69
#SCROLL 1.01
400000000000200000000000,
#BPMCHANGE 163.79
300000000000000000300000400000000000200000000000,
#BPMCHANGE 169.27
#SCROLL 0.98
300000000000000000300000
#BPMCHANGE 168.21
#SCROLL 0.99
400000000000200000000000,
#BPMCHANGE 163.68
#SCROLL 1.01
300000000000000000300000
#BPMCHANGE 162.74
#SCROLL 1.02
400000200200200000200000,
#BPMCHANGE 171.53
#SCROLL 0.97
300000000000000000300000
#BPMCHANGE 165.01
#SCROLL 1.01
400000000000200000000000,
#BPMCHANGE 161.9
#SCROLL 1.02
400000000000000000400000600000000000000080000000,
#BPMCHANGE 169.65
#SCROLL 0.98
400000000000000000400000600000000000000080000000,
#BPMCHANGE 163.94
#SCROLL 1.01
000000000000300000000000300000200000200000100000,
#BPMCHANGE 167.91
#SCROLL 0.99
000000100000000000100100
#BPMCHANGE 172.42
#SCROLL 0.96
100000200200200000100100,
#BPMCHANGE 164.53
#SCROLL 1.01
100000000000100000100000
#BPMCHANGE 167.91
#SCROLL 0.99
200000200000000000200000,
#BPMCHANGE 157.59
#SCROLL 1.05
000000000000300000000000
#BPMCHANGE 163.66
#SCROLL 1.01
000000000000000000000000,
#GOGOSTART
#BPMCHANGE 169.53
#SCROLL 0.98
500000000000000000000000000000000000000000000080,
#BPMCHANGE 165.48
#SCROLL 1
000000000000200000200000100000200200100000200000,
#BPMCHANGE 167.21
#SCROLL 0.99
100000100000000000200000100000000000200000000000,
#BPMCHANGE 167.28
300000300000000000400000300000000000000000000000,
#BPMCHANGE 164.99
#SCROLL 1.01
100000000000100000000000200000100100200000100000,
#BPMCHANGE 167.91
#SCROLL 0.99
200000000000200000000000200000100100200000100000,
#BPMCHANGE 164.53
#SCROLL 1.01
200000000000100100200000200200100000000000300000,
#BPMCHANGE 167.91
#SCROLL 0.99
000000000000400000000000
#BPMCHANGE 156.52
#SCROLL 1.06
000000000000000000000000,
#BPMCHANGE 169.01
#SCROLL 0.98
500000000000000000000000000000000000000000000080,
000000000000200000200000100000200200100000200000,
#BPMCHANGE 163.34
#SCROLL 1.02
100000100000000000200000100000000000200000000000,
#BPMCHANGE 169.65
#SCROLL 0.98
300000300000000000400000
#BPMCHANGE 167.76
#SCROLL 0.99
300000000000000000000000,
#GOGOEND
#BPMCHANGE 156.21
#SCROLL 1.06
100000000000200000100000
#BPMCHANGE 161.92
#SCROLL 1.02
100000000000200000100000,
#BPMCHANGE 167.6
#SCROLL 0.99
000000200000000000100000
#BPMCHANGE 172.08
#SCROLL 0.96
200000000000100000000000,
#BPMCHANGE 161.58
#SCROLL 1.03
100000000000200000100000
#BPMCHANGE 167.6
#SCROLL 0.99
100000000000200000100000,
#BPMCHANGE 175.44
#SCROLL 0.95
000000200000000000100000
#BPMCHANGE 161.29
#SCROLL 1.03
200000000000100000000000,
#BPMCHANGE 166.98
#SCROLL 0.99
300000000000300000000000400000400000000000100000,
#BPMCHANGE 163.94
#SCROLL 1.01
000000100000000000200000
#GOGOSTART
#BPMCHANGE 161.87
#SCROLL 1.03
300000000000000000000000,
#BPMCHANGE 168.47
#SCROLL 0.99
500000000000000000000000000000000000000000000080,
#BPMCHANGE 166.74
#SCROLL 1
000000000000200000200000100000200200100000200000,
#BPMCHANGE 167.52
#SCROLL 0.99
100000100000200000200000100000200200200000200200,
#BPMCHANGE 165.51
#SCROLL 1
100000100000200000200000100000200200200000200200,
#BPMCHANGE 165.75
100000000000100000000000200000100100200000100000,
#BPMCHANGE 165.93
200000000000200000000000200000100100200000100000,
#BPMCHANGE 166.02
200000000000100100200000200200100000000000300000,
#BPMCHANGE 164.2
#SCROLL 1.01
000000000000400000000000000000000000000000000000,
#BPMCHANGE 166.55
#SCROLL 1
500000000000000000000000000000000000000000000080,
#BPMCHANGE 168.11
#SCROLL 0.99
000000000000200000200000100000200200100000200000,
#BPMCHANGE 164.5
#SCROLL 1.01
100000100000200000200000100000200200200000200200,
#BPMCHANGE 166.21
#SCROLL 1
100000100000200000200000
#BPMCHANGE 169.33
#SCROLL 0.98
100000200200200000200200,
#GOGOEND
#BPMCHANGE 157.06
#SCROLL 1.06
100000000000200000100000
#BPMCHANGE 167.29
#SCROLL 0.99
100000000000200000100000,
#BPMCHANGE 167.68
000000200000000000100000200000000000100000000000,
#BPMCHANGE 159.79
#SCROLL 1.04
100000000000200000100000
#BPMCHANGE 169.03
#SCROLL 0.98
100000000000200000100000,
#BPMCHANGE 169.35
000000200000000000100000200000000000100000000000,
#BPMCHANGE 165.5
#SCROLL 1
300000000000300000000000400000400000000000100000,
#BPMCHANGE 165.85
000000100000000000200000300000000000000000000000,
#END
COURSE:Hard
LEVEL:5
BALLOON:15
SCOREINIT:610
SCOREDIFF:160
#START
#BPMCHANGE 166
#GOGOSTART
#BARLINEOFF
000000000000000000000000000000000000000000000000,
#BARLINEON
300000000000000000000000000000000000000000000000,
300000000000000000000000000000000000000000000000,
300000000000000000000000000000000000000000000000,
300000000000000000000000000000000000400000000000,
100000000000100000000000100000000000200000500000,
000000000000000000800000000000000000000000000000,
300000000000300000000000300000300000000000400000,
#GOGOEND
000000000000000000000000000000000000000000000000,
100000100000200000200000100000000000200000100000,
000000000000400000400000600000000800000000000000,
100000100000200000200000100000000000200000100000,
000000000000400000400000600000000800000000000000,
100000100000200000200000100000000000200000100000,
000000000000000000000000000000200200200000200000,
100000100000200000200000100000000000000000100000,
000000000000300000300000400000000000000000000000,
100000100000200000200000100000000000200000100000,
000000000000400000400000400000000000000000000000,
100000100000200000200000100000000000200000100000,
000000000000400000400000400000000000000000000000,
100000100000200000200000100000000000200000100000,
000000000000000000000000000000200200200000200000,
100000000000100000000000200000200000000000100000,
000000000000300000000000400000000000000000000000,
300000000000000000300000400000000000200000000000,
300000000000000000300000400000000000200000000000,
300000000000000000300000400000200200200000200000,
300000000000000000300000400000000000200000000000,
400000000000000000400000600000800000000000000000,
400000000000000000400000600000000000800000000000,
000000000000300000000000300000000000000000200000,
000000200000000000100000100000200000200000100000,
700000000000000000000000000000000000000000800000,
000000000000300000000000000000000000000000000000,
#GOGOSTART
500000000000000000000000000000000000000000800000,
000000000000200000200000100000200000200000000000,
100000100000000000200000100000000000200000000000,
300000300000000000400000300000000000000000000000,
100000000000100000000000200000100000200000100000,
200000000000200000000000200000100000200000100000,
200000000000100000100000200000200000000000300000,
000000000000400000000000000000000000000000000000,
500000000000000000000000000000000000000000800000,
000000000000200000200000100000200000200000000000,
100000100000000000200000100000000000200000000000,
300000300000000000400000300000000000000000000000,
#GOGOEND
300000000000000000000000300000000000000000200000,
000000200000000000100000200000000000000000000000,
300000000000000000000000300000000000000000200000,
000000200000000000100000200000000000000000000000,
300000000000300000000000400000400000000000300000,
000000300000000000400000
#GOGOSTART
300000000000000000000000,
500000000000000000000000000000000000000000000800,
000000000000200000200000100000200000200000000000,
100000100000200000200000100000000000200000000000,
100000100000200000200000100000200200200000000000,
100000000000100000000000200000100000200000100000,
200000000000200000000000200000100000200000100000,
200000000000100000100000200000200000000000300000,
000000000000400000000000000000000000000000000000,
500000000000000000000000000000000000000000000800,
000000000000200000200000100000200000200000000000,
100000100000200000200000100000000000200000000000,
100000100000200000200000100000200200200000000000,
#GOGOEND
300000000000000000000000300000000000000000200000,
000000200000000000100000200000000000000000000000,
300000000000000000000000300000000000000000200000,
000000200000000000100000200000000000000000000000,
300000000000300000000000400000400000000000300000,
000000300000000000400000300000000000000000000000,
#END
COURSE:Normal
LEVEL:4
BALLOON:10
SCOREINIT:540
SCOREDIFF:140
#START
#BPMCHANGE 166
#GOGOSTART
#BARLINEOFF
000000000000000000000000000000000000000000000000,
#BARLINEON
300000000000000000000000000000000000000000000000,
300000000000000000000000000000000000000000000000,
300000000000000000000000000000000000000000000000,
300000000000000000000000000000000000400000000000,
100000000000100000000000100000000000000000500000,
000000000000000000800000000000000000000000000000,
300000000000300000000000300000300000000000400000,
#GOGOEND
000000000000000000000000000000000000000000000000,
100000100000100000000000100000000000100000100000,
000000000000400000400000600000800000000000000000,
100000100000100000000000100000000000100000100000,
000000000000400000400000600000800000000000000000,
100000100000100000000000100000000000100000100000,
000000000000000000000000000000400000000000000000,
100000100000100000000000100000000000000000100000,
000000000000300000300000400000000000000000000000,
100000100000100000000000100000000000100000100000,
000000000000400000400000400000000000000000000000,
100000100000100000000000100000000000100000100000,
000000000000400000400000400000000000000000000000,
100000100000100000000000100000000000100000100000,
000000000000000000000000000000400000400000000000,
100000000000100000000000200000200000000000100000,
000000000000300000000000400000000000000000000000,
300000000000000000300000400000000000200000000000,
300000000000000000300000400000000000200000000000,
300000000000000000300000400000000000000000000000,
300000000000000000300000400000000000200000000000,
400000000000000000400000600000800000000000000000,
400000000000000000400000600000000000800000000000,
000000000000300000000000300000000000000000000000,
000000000000000000000000000000000000000000000000,
700000000000000000000000000000000000000000800000,
000000000000000000000000000000000000000000000000,
#GOGOSTART
500000000000000000000000000000000000800000000000,
000000000000100000100000100000000000200000000000,
100000100000000000200000100000000000000000000000,
100000100000000000200000100000000000000000000000,
100000000000100000000000100000100000100000000000,
100000000000100000000000100000100000100000000000,
100000000000100000100000100000100000000000300000,
000000000000400000000000000000000000000000000000,
500000000000000000000000000000000000800000000000,
000000000000100000100000100000000000200000000000,
100000100000000000200000100000000000000000000000,
100000100000000000200000100000000000000000000000,
#GOGOEND
300000000000000000000000300000000000000000200000,
000000200000000000200000200000000000000000000000,
300000000000000000000000300000000000000000200000,
000000200000000000200000200000000000000000000000,
300000000000300000000000300000300000000000300000,
000000300000000000400000
#GOGOSTART
300000000000000000000000,
500000000000000000000000000000000000800000000000,
000000000000100000100000100000000000200000000000,
100000100000100000100000100000000000200000000000,
100000100000100000100000100000000000000000000000,
100000000000100000000000100000100000100000000000,
100000000000100000000000100000100000100000000000,
100000000000100000100000100000100000000000300000,
000000000000400000000000000000000000000000000000,
500000000000000000000000000000000000800000000000,
000000000000100000100000100000000000200000000000,
100000100000100000100000100000000000200000000000,
100000100000100000100000100000000000000000000000,
#GOGOEND
300000000000000000000000300000000000000000200000,
000000200000000000200000200000000000000000000000,
300000000000000000000000300000000000000000200000,
000000200000000000200000200000000000000000000000,
300000000000300000000000300000300000000000300000,
000000300000000000400000300000000000000000000000,
#END
COURSE:Easy
LEVEL:3
BALLOON:7
SCOREINIT:530
SCOREDIFF:160
#START
#BPMCHANGE 166
#GOGOSTART
#BARLINEOFF
000000000000000000000000000000000000000000000000,
#BARLINEON
300000000000000000000000000000000000000000000000,
300000000000000000000000000000000000000000000000,
300000000000000000000000000000000000000000000000,
300000000000000000000000000000000000000000000000,
100000000000100000000000100000000000000000500000,
000000000000000000800000000000000000000000000000,
300000000000300000000000300000000000000000400000,
#GOGOEND
000000000000000000000000000000000000000000000000,
100000000000100000000000100000000000000000000000,
000000200000000000000000200000000000000000000000,
100000000000100000000000100000000000000000000000,
000000200000000000000000200000000000000000000000,
100000000000100000000000100000000000000000000000,
000000000000000000000000000000400000000000000000,
100000000000100000000000100000000000000000500000,
000000000000000000008000000000000000000000000000,
100000000000100000000000100000000000000000000000,
000000200000000000000000200000000000000000000000,
100000000000100000000000100000000000000000000000,
000000200000000000000000200000000000000000000000,
100000000000100000000000100000000000000000000000,
000000000000000000000000000000400000000000000000,
300000000000300000000000300000000000000000600000,
000000000000000000800000000000000000000000000000,
100000000000000000000000100000000000000000000000,
000000200000000000000000200000000000000000000000,
100000000000100000000000000000000000000000000000,
400000000000000000000000100000000000100000000000,
100000000000000000000000100000000000000000000000,
000000200000000000000000200000000000000000000000,
000000000000300000000000300000000000000000000000,
000000000000000000000000000000000000000000000000,
700000000000000000000000000000000000000000800000,
000000000000000000000000000000000000000000000000,
#GOGOSTART
500000000000000000000000000000000000800000000000,
000000000000100000000000100000000000000000000000,
100000000000100000000000100000000000000000000000,
100000000000100000000000100000000000000000000000,
100000000000000000000000100000000000000000000000,
100000000000100000000000100000000000000000000000,
100000000000100000000000100000000000000000100000,
000000000000400000000000000000000000000000000000,
500000000000000000000000000000000000800000000000,
000000000000100000000000100000000000000000000000,
100000000000100000000000100000000000000000000000,
100000000000100000000000100000000000000000000000,
#GOGOEND
300000000000000000000000300000000000000000000000,
000000200000000000000000200000000000000000000000,
300000000000000000000000300000000000000000000000,
000000200000000000000000200000000000000000000000,
300000000000300000000000300000000000000000300000,
000000300000000000400000
#GOGOSTART
300000000000000000000000,
500000000000000000000000000000000000800000000000,
000000000000100000000000100000000000000000000000,
100000000000100000000000100000000000000000000000,
100000000000100000000000100000000000000000000000,
100000000000000000000000100000000000000000000000,
100000000000100000000000100000000000000000000000,
100000000000100000000000100000000000000000100000,
000000000000400000000000000000000000000000000000,
500000000000000000000000000000000000800000000000,
000000000000100000000000100000000000000000000000,
100000000000100000000000100000000000000000000000,
100000000000100000000000100000000000000000000000,
#GOGOEND
300000000000000000000000300000000000000000000000,
000000200000000000000000200000000000000000000000,
300000000000000000000000300000000000000000000000,
000000200000000000000000200000000000000000000000,
300000000000300000000000300000000000000000300000,
000000300000000000400000300000000000000000000000,
#END