Files
ESE-ja-fix/01 Pop/My Revolution/My Revolution.tja
T
2023-06-15 19:15:39 -05:00

311 lines
13 KiB
Plaintext

//TJADB Project
TITLE:My Revolution
TITLEJA:My Revolution
SUBTITLE:--Misato Watanabe/Sailor Clothes Street
BPM:129
WAVE:My Revolution.ogg
OFFSET:-1.893
DEMOSTART:83.763
COURSE:Oni
LEVEL:6
BALLOON:6,6
#START
100000200000100000000000100000000000000000000000,
100000200000100000200000100000000000000000200000,
100000200000100000000000300000000000000000000000,
100000200000100000200000100000000000000000200000,
100000200000100000000000100000000000000000000000,
100000200000100000200000100000000000000000200000,
100000200000100000000000300000000000100000000000,
100000200200200000200000200000100000200000000000,
100000200200200000200000200000100000200000000000,
100000200200200000200000200000100000100000100000,
100000200000100000000000000000000000100000000000,
100000100100100000100000100000200000100000000000,
100000100100100000100000100000200000100000000000,
100000100100100000100000100000100000100000100000,
100000200000100000000000000000000000100000000000,
100000100100100000200000100000200000100000000000,
100000100100100000200000100000200000100000000000,
100000100100100000200000100000200000100000000000,
100000100100100000100000100000100000100000200000,
100000100100100000100000100000000000200000000000,
100000100100100000100000100000000000100000000000,
100000100100100000100000100000100000100000200000,
000000200000200200200000200000000000100000000000,
100000200200100000200000200000000000100000000000,
100000200200100000200000200000000000100000000000,
100000200200100000100000100000100000200000000000,
100000100100100000100000100000200000100000200000,
100000200200200000200000200000000000100000000000,
100000100100100000100000100000000000100000000000,
100000100000100000000000100000100000100000100000,
000000100100100000100000100000000000000000100100,
100000100000100000200100000000200200100000200200,
100000100000100000200100000000200200100000200200,
100000100000100000200100000000100000100000100000,
100000000000100000100000000000200200200000100100,
100000100000100000200100000000200200100000200200,
100000100000100000200100000000200200100000200200,
100000100000100000200100000000100000100000100000,
100000000000100000100000000000200200200000100100,
100000100000100000100100000000200000200000100100,
100000100000100000100100000000200000200000100100,
100000100000100000100100000000200000200000200000,
100100100100100000100000500000000000000000000000,
000000000000000008000000000000200000200000200000,
200000100000100000100000200000200000100000200000,
100000000000000000100100100000000000300000000000,
000000200000200000200000100000200000200000200000,
100100100000000000100000500000000000000000000008,
000000100000100000200000100000200000200000200000,
100000000000000000100000100000000000200200200000,
100000000000200200200000100000000000100000000000,
200000000000000000100000500000000000000000000008,
000000100000100000100000200000200000100000200000,
100100100000000000100000700000000000000000000000,
800000200000200000200000100000200000200000200000,
100100100000000000100000700000000000000000000000,
800000100000100000200000200000100000200000200000,
100100100000000000100000100000000000200200200000,
100000000000200200200000100000000000100000000000,
100000200200200000100000100000200200200000100000,
500000000000000000000000000008000000000000000000,
#END
COURSE:Hard
LEVEL:2
BALLOON:3
SCOREINIT:760
SCOREDIFF:190
#START
100000200000100000000000100000000000000000000000,
100000000000000000000000000000000000000000000000,
100000200000100000000000100000000000000000000000,
100000200000100000200000100000000000000000000000,
100000200000100000000000100000000000000000000000,
100000200000100000200000100000000000000000000000,
100000200000100000000000100000000000000000000000,
100000000000000000000000200000000000000000000000,
100000000000000000000000200000000000000000000000,
100000000000000000000000200000200000200000000000,
100000100000100000000000000000000000100000000000,
100000000000200000000000000000000000100000000000,
100000000000200000000000000000000000100000000000,
100000000000000000000000200000200000200000000000,
100000100000100000000000000000000000100000000000,
100000000000200000000000000000000000100000000000,
100000000000200000000000000000000000100000000000,
100000000000000000100000100000000000100000000000,
100000200000200000100100100000000000100000000000,
100000000000000000000000000000000000100000000000,
100000000000000000000000000000000000100000000000,
100000000000000000000000000000000000000000100000,
000000200000200000000000200000000000100000000000,
100000000000200000000000000000000000100000000000,
100000000000200000000000000000000000100000000000,
100000000000000000100100100000000000100000000000,
100000100000100000100100100000100000100000000000,
100000000000000000000000000000000000100000000000,
100000000000000000000000000000000000100000000000,
100000100000100000000000000000000000000000100000,
000000100000100000000000100000000000000000100100,
100000100000100000100100000000000000000000100100,
100000100000100000100100000000000000000000100100,
100000100000100000100100000000100000100000100000,
100000000000200000200000000000000000000000100100,
100000100000100000100100000000000000000000100100,
100000100000100000100100000000000000000000100100,
100000100000100000100100000000100000100000100000,
100000000000200000200000000000000000000000000000,
100000000000100000000000300000000000000000000000,
100000000000100000000000300000000000000000100100,
100000000000100000000000100000000000100000000000,
300000000000000000100000500000000000000000000000,
000000000000000000008000000000000000000000000000,
000000100000100000100000100000000000100000000000,
100000000000000000100100100000000000100000000000,
000000200000200000200000200000000000200000000000,
100000000000000000200000200000000000000000000000,
000000100000100000100000100000000000200000000000,
100000000000000000100000100000000000200000000000,
100000000000200000000000100000000000100000000000,
200000000000000000200000200000000000000000000000,
000000100000100000100000100000000000300000000000,
100000000000000000100000700000000000000000008000,
000000200000200000200000200000000000200000000000,
200000000000000000200000200000000000000000000000,
000000100000100000100000200000000000100000000000,
100000000000000000100000100000000000200000000000,
100000000000200000000000100000000000200000000000,
300000000000000000000000300000000000000000000000,
500000000000000000000000000000000000000000000000,
000000000000000000000008000000000000000000000000,
#END
COURSE:Normal
LEVEL:3
SCOREINIT:1050
#START
100000000000200000000000200000000000000000000000,
100000000000000000000000000000000000000000000000,
100000000000200000000000200000000000000000000000,
100000000000000000000000000000000000000000000000,
100000000000200000000000200000000000000000000000,
100000000000000000000000000000000000000000000000,
100000000000200000000000200000000000000000000000,
100000000000000000000000200000000000000000000000,
100000000000000000000000200000000000000000000000,
100000000000000000000000200000000000000000000000,
100000000000000000000000000000000000100000000000,
100000000000200000000000000000000000100000000000,
100000000000200000000000000000000000100000000000,
100000000000200000000000000000000000200000000000,
100000100000100000000000000000000000100000000000,
100000000000200000000000000000000000100000000000,
100000000000200000000000000000000000100000000000,
100000000000000000100000100000000000100000000000,
100000000000200000000000000000000000100000000000,
100000000000000000000000000000000000100000000000,
100000000000000000000000000000000000100000000000,
100000000000000000000000000000000000000000000000,
000000000000000000000000000000000000100000000000,
100000000000200000000000000000000000100000000000,
100000000000200000000000000000000000100000000000,
100000000000000000100000100000000000100000000000,
100000000000200000000000000000000000100000000000,
100000000000000000000000000000000000100000000000,
100000000000000000000000000000000000100000000000,
100000100000100000000000000000000000000000000000,
200000000000200000000000200000000000000000100000,
100000000000100000000000100000000000000000100000,
100000000000100000000000100000000000000000100000,
100000000000100000000000100000000000100000000000,
100000000000200000200000000000000000000000100000,
100000000000100000000000100000000000000000100000,
100000000000100000000000100000000000000000100000,
100000000000100000000000100000000000100000000000,
000000000000200000200000000000000000000000100000,
100000000000100000000000200000000000000000100000,
100000000000100000000000200000000000000000100000,
100000000000100000000000200000000000000000000000,
400000000000000000000000500000000000000000000000,
000000000000000000800000000000000000000000000000,
000000000000100000000000100000000000100000000000,
100000000000000000100100100000000000100000000000,
000000000000100000000000100000000000100000000000,
100000000000000000200000200000000000000000000000,
100000000000100000000000100000000000000000000000,
100000000000000000000000100000000000200000000000,
100000000000200000000000100000000000200000000000,
100000000000000000200000200000000000000000000000,
000000000000100000000000100000000000100000000000,
100000000000000000100000300000000000000000000000,
000000000000100000000000100000000000100000000000,
100000000000000000100000300000000000000000000000,
100000100000100000000000100000000000000000000000,
100000000000000000000000100000000000200000000000,
100000000000200000000000100000000000200000000000,
100000000000000000100000100000000000000000000000,
500000000000000000000000000000000000000000000000,
000000000008000000000000000000000000000000000000,
#END
COURSE:Easy
LEVEL:4
BALLOON:10
SCOREINIT:1070
#START
000000000000000000000000000000000000000000000000,
100000000000000000000000000000000000000000000000,
000000000000000000000000000000000000000000000000,
100000000000000000000000000000000000000000000000,
100000000000100000000000100000000000000000000000,
100000000000000000000000000000000000000000000000,
100000000000100000000000100000000000000000000000,
100000000000000000000000000000000000000000000000,
100000000000000000000000000000000000000000000000,
100000000000000000000000000000000000100000000000,
100000000000100000000000000000000000100000000000,
100000000000000000000000000000000000100000000000,
100000000000000000000000000000000000100000000000,
100000000000000000000000000000000000100000000000,
100000000000100000000000000000000000000000000000,
100000000000000000000000000000000000000000000000,
100000000000000000000000000000000000100000000000,
100000000000000000000000100000000000100000000000,
100000000000100000000000000000000000000000000000,
100000000000000000000000000000000000000000000000,
100000000000000000000000000000000000100000000000,
100000000000000000000000000000000000000000000000,
100000000000100000000000100000000000000000000000,
100000000000000000000000100000000000000000000000,
100000000000000000000000100000000000000000000000,
100000000000000000000000100000000000200000000000,
100000000000000000000000100000000000200000000000,
100000000000000000000000000000000000100000000000,
100000000000000000000000000000000000100000000000,
100000000000000000000000100000000000000000000000,
100000000000100000000000100000000000000000000000,
100000100000100000000000100000000000000000000000,
100000100000100000000000100000000000000000000000,
100000100000100000000000100000000000000000000000,
100000000000100000000000000000000000000000000000,
100000100000100000000000100000000000000000000000,
100000100000100000000000100000000000000000000000,
100000100000100000000000100000000000000000000000,
100000000000100000000000000000000000000000000000,
100000000000000000000000200000000000000000000000,
100000000000000000000000200000000000000000000000,
100000000000000000000000200000000000000000000000,
400000000000000000000000500000000000000000000000,
000000000000000000800000000000000000000000000000,
000000000000100000000000100000000000100000000000,
300000000000000000000000200000000000200000000000,
000000000000100000000000100000000000100000000000,
100000000000000000000000300000000000000000000000,
000000000000100000000000100000000000100000000000,
100000000000000000000000100000000000100000000000,
200000000000100000000000200000000000100000000000,
200000000000000000000000200000000000000000000000,
000000000000100000000000100000000000100000000000,
100000000000000000000000100000000000000000000000,
000000000000100000000000100000000000100000000000,
100000000000000000000000300000000000000000000000,
000000000000100000000000100000000000100000000000,
100000000000000000000000100000000000100000000000,
200000000000100000000000200000000000100000000000,
200000000000000000000000200000000000200000000000,
7,
0800,
#END