Files
ESE-ja-fix/01 Pop/Playback Part 2/Playback Part 2.tja
T
2023-06-15 19:15:39 -05:00

300 lines
10 KiB
Plaintext

//TJADB Project
TITLE:Playback Part 2
TITLEJA:プレイバックPart2
SUBTITLE:--Ryudo Uzaki feat. Momoe Yamaguchi
BPM:124
WAVE:Playback Part 2.ogg
OFFSET:-8.235
DEMOSTART:62.833
COURSE:Oni
LEVEL:7
#START
100000000100000000100000200000000200000000200000,
100000000100000000100000200000000200000000200000,
100000000100000000200000100000000200000000200000,
100000000100000000200000100000000200000000200000,
100000100200000200100000100000100200000200100000,
100000100200200000100000100000100200200000200100,
100000100200000000100100200000000200000000200100,
100000000100000000100100200000000200000000200100,
100000100200000200100000100000100200000200100000,
100000100200200000100000100000100200200000200100,
100000100200000000100100200000000200000000200100,
100000000100000000100100200000000200000000200100,
100000000100200000100000100000000100200000100100,
100000000100200000200100100100200200100100200200,
100000000100200000100000100000000100200000100200,
100000100000100000100100100000000200000000100100,
#MEASURE 2/4
200000000000000000100100,
#MEASURE 4/4
100000000000100100100200200000000100200000000000,
#GOGOSTART
100000000100200000100200100200100000200000100100,
100000000000100000100100000000200000200200000000,
100000000100200000100200100200100000200000100100,
100000000100100000100000000000000000000000000000,
100000200000000000100000200000200200200000000000,
100100100200200000100000000000000000000000000000,
100000200000000000000000000000000000300000400000,
000000000000300000000000400000000000400000000000,
#MEASURE 6/4
300000000000000000000000000000000000000000000000
#GOGOEND
000000000000000000000000,
#MEASURE 4/4
100000000200000000100100200000000000000000100100,
100000000000100100100200200000000100100000000000,
#GOGOSTART
100000000100200000100200100200100000200000100000,
100000000000100000100100000000000000200000000200,
200000200000100000100000100000200000000000200000,
200100000200100000200100000200100000200000000000,
100100000200100000200000100000100000000000000000,
#GOGOEND
100100000200100000200000100000100000200200200000,
200200000100200000100000100000200000000000000000,
200200000100200000100000100000200000200200200000,
100100000200200000100000100000200000100100200200,
200200000100100000200000200000500000000000000000,
000000000000000000000008000000000000000000100100,
100000000100200000100000100000000100200000100100,
#GOGOSTART
100000100000000000000000100200200000000000000000,
100100100000200100100100000000100100200200100000,
100100000100200000200000100100000100200000200000,
100000000000400000000000000000200200200000200200,
200000000000000000000000000000000000000000000000,
#GOGOEND
#END
COURSE:Hard
LEVEL:5
SCOREINIT:780
SCOREDIFF:160
#START
100000000100000000100000200000000200000000200000,
100000000100000000100000200000000200000000200000,
100000000100000000200000100000000200000000200000,
100000000100000000200000100000000200000000200000,
100000100200000000100000100000100200000000100000,
100000100000200000200000100000100000200000200100,
100000100100000000100100100000000100000000200200,
200000000200000000100100100000000100000000200000,
100000100200000000100000100000100200000000100000,
100000100000200000200000100000100000200000200100,
100000100100000000100100100000000100000000200200,
200000000200000000100100100000000100000000100000,
100000000100200000000000100000000100200000000000,
100000000100200000000000100100100000200200200000,
100000000100200000000000100000000100200000000000,
100000100000100000100100100000000200000000100100,
#MEASURE 2/4
200000000000000000100100,
#MEASURE 4/4
100000000000100100100100100000000200200000000000,
#GOGOSTART
100000000100200000100000100000200000000000200000,
100000000000100000100100000000200000200200000000,
100000000100200000100000100000200000000000200000,
100000000100100000100000000000000000000000000000,
100000100000000000300000300000400000000000000000,
100100100100100000100000000000000000000000000000,
100000100000000000000000000000000000300000300000,
000000000000100000000000200000000000400000000000,
#MEASURE 6/4
300000000000000000000000000000000000000000000000
#GOGOEND
000000000000000000000000,
#MEASURE 4/4
100000000200000000100100200000000000000000100100,
#GOGOSTART
100000000000100100100100100000000200200000000000,
100000000100200000100000100000200000000000200000,
100000000000100000100100000000000000200000000200,
200000000000100000100000100000200000000000200000,
100100000200200000100100000200200000200000000000,
#GOGOEND
100100000100100000200000200000200000000000000000,
200200000200200000100000100000100000000000000000,
100100000100100000200000200000200000000000000000,
200200000200200000100000100000100000000000000000,
100100000200200000100000100000200000000000000000,
200200000100100000200000200000500000000000000000,
000000000000000000000800000000000000000000100100,
#GOGOSTART
200000000000000000000000000000000000000000000000,
100000100000000000000000100200200000000000000000,
100100100000200200200200000000100100200000200000,
100100000100100000200000100100000100100000200000,
000000000000400000000000000000200200200000200200,
200000000000000000000000000000000000000000000000,
#GOGOEND
#END
COURSE:Normal
LEVEL:5
SCOREINIT:930
SCOREDIFF:240
#START
100000000100000000100000100000000100000000000000,
100000000100000000100000100000000100000000000000,
100000000100000000200000200000000200000000000000,
100000000100000000200000200000000200000000000000,
100000100100000000100000100000100000000000100000,
100000100000000000000000100000000000100000000000,
200200200000000000000000000000000000000000000000,
000000000000000000000000000000000000000000000000,
100000100100000000100000100000100000000000100000,
100000100000000000000000100000000000100000000000,
200200200000000000000000000000000000000000000000,
000000000000000000000000000000000000000000000000,
100000000100100000000000100000100000000000000000,
100000000200200000000000200000200000000000000000,
100000000100100000000000100000100000000000000000,
100000000000100000000000100000000100000000200200,
#MEASURE 2/4
200000000000000000300000,
#MEASURE 4/4
300000000000100000100000100000000100100000000000,
#GOGOSTART
100000000000100000000000100000100000000000000000,
100000000000100000100000000000100000100000000000,
100000000000100000000000200000200000000000000000,
100000000100100000100000000000000000000000000000,
200000200000000000400000400000000000000000000000,
100100000000100000100000000000000000000000000000,
400000400000000000000000000000000000300000300000,
000000000000100000000000100000000000300000000000,
#MEASURE 6/4
300000000000000000000000000000000000000000000000
#GOGOEND
000000000000000000000000,
#MEASURE 4/4
100000000100000000200200200000000000000000300000,
300000000000100000100000100000000100100000000000,
#GOGOSTART
100000000000100000000000100000100000000000000000,
100000000000100000100000000000100000100000000000,
100000000000100000000000200000200000000000000000,
200000200000000000200000200000000000000000000000,
100100000000100000000000100000100000000000000000,
#GOGOEND
100100000000100000000000200000200000000000000000,
100100000000100000000000100000100000000000000000,
100100000000100000000000200000200000000000000000,
100100000000100000000000100000100000000000000000,
300000000000300000000000500000000000000000000000,
000000000000000000000800000000000000000000100100,
100000000000000000000000000000000000000000000000,
#GOGOSTART
100000100000000000000000200000200000000000000000,
100100100000100000000000100000000000000000000000,
100000000100100000100000100000000100100000100000,
000000000000400000000000000000200000200000000000,
200000000000000000000000000000000000000000000000,
#GOGOEND
#END
COURSE:Easy
LEVEL:4
SCOREINIT:890
SCOREDIFF:360
#START
100000000000000000000000100000000000000000000000,
100000000000000000000000100000000000000000000000,
100000000000000000000000200000000000000000000000,
100000000000000000000000200000000000000000000000,
100000100000000000000000100000000000000000000000,
100000100000000000000000100000000000000000000000,
200000200000000000000000000000000000000000000000,
000000000000000000000000000000000000000000000000,
100000100000000000000000100000000000000000000000,
100000100000000000000000100000000000000000000000,
200000200000000000000000000000000000000000000000,
000000000000000000000000000000000000000000000000,
100000000000000000000000100000100000000000000000,
100000000000000000000000200000000000000000000000,
100000000000000000000000100000100000000000000000,
100000000000000000000000100000000000000000000000,
#MEASURE 2/4
000000000000000000300000,
#MEASURE 4/4
300000000000000000000000000000000000100000000000,
#GOGOSTART
100000000000000000000000200000000000000000000000,
100000000000100000000000100000000000000000000000,
100000000000000000000000200000000000000000000000,
100000000000100000000000000000000000000000000000,
100000100000000000100000100000000000000000000000,
100000000000100000000000000000000000000000000000,
100000100000000000000000000000000000300000300000,
000000000000100000000000100000000000100000000000,
#MEASURE 6/4
300000000000000000000000000000000000000000000000
#GOGOEND
000000000000000000000000,
#MEASURE 4/4
100000000000000000000000000000000000000000300000,
300000000000000000000000000000000000100000000000,
#GOGOSTART
100000000000000000000000200000000000000000000000,
100000000000100000000000100000000000000000000000,
100000000000000000000000200000000000000000000000,
100000000000100000000000100000000000000000000000,
100000000000000000000000100000100000000000000000,
#GOGOEND
100000000000000000000000100000100000000000000000,
100000000000000000000000200000200000000000000000,
100000000000000000000000200000200000000000000000,
100000000000100000000000100000000000000000000000,
100000000000100000000000500000000000000000000000,
000000000000000000800000000000000000000000000000,
100000000000000000000000000000000000000000000000,
#GOGOSTART
100000100000000000000000100000100000000000000000,
100000000000100000000000100000000000000000000000,
100000000000000000000000100000000000100000000000,
000000000000400000000000000000200000200000000000,
200000000000000000000000000000000000000000000000,
#GOGOEND
#END