Files
ESE-ja-fix/01 Pop/SMILY/SMILY.tja
T
2023-06-15 19:15:39 -05:00

437 lines
12 KiB
Plaintext

//TJADB Project
TITLE:SMILY
TITLEJA:SMILY
SUBTITLE:--Ai Otsuka/Ban Powder Spray
BPM:154
WAVE:SMILY.ogg
OFFSET:-1.765
DEMOSTART:7.998
COURSE:Oni
LEVEL:6
SCOREINIT:800
SCOREDIFF:150
#START
300000000000300000000000300000300000300000000000,
100000100000200000200000000000100000100000000000,
300000000000300000000000300000300000300000000000,
100000100000200000200000000000100000100000000000,
100000000000200000100000100000100000200000000000,
100000100000200000100000100000100000200000000000,
100000000000200000100000100000100000200000100000,
100000000000200000000000100000100000200000000000,
100000000000200000100000100000100000200000000000,
100000100000200000100000100000100000200000100000,
100000000000200000100000100000100000200000000000,
100000000000200000000000100000100000200000000000,
300000000000300000000000200200200000200000000000,
#SECTION
#BRANCHSTART p,75,90
#N
11101010,
1001101010002000,
11101010,
1001101010002000,
11101010,
1001101010004000,
11101010,
1001101010003000,
#E
1011100010102000,
1011102010002000,
1011100010102000,
1011102010002000,
1011102010002000,
1011102010004000,
1011102010002000,
1011102010003000,
#M
1011102010102220,
11221020,
1011102010102020,
11221040,
1011102010102220,
11221030,
1011102010102020,
11221040,
#SECTION
#BRANCHSTART p,75,90
#N
10011020,
10011020,
10101110,
1110,
10011020,
10011020,
10101110,
500000000000000000000000000000000008000000000000,
30301110,
#E
10011020,
1000001010002220,
10110220,
10101222,
10011020,
1000001010002220,
10110110,
10000003,
3000300011102000,
#M
10210122,
1000201000102220,
10110220,
1000100010202220,
10210122,
1000201000102220,
10011001,
10000003,
3000300011102020,
#GOGOSTART
#SECTION
#BRANCHSTART p,75,90
#N
1001101010002000,
1001101010000000,
1001100010011000,
11101000,
1001101010002000,
1001101010001010,
01010110,
11111110,
#E
1010200011102010,
1010200011102000,
11201120,
1010100011102000,
1010200011102010,
1010200011102000,
11201120,
1010100011102000,
#M
1110201011102020,
1110201011102020,
11221122,
1120200011102010,
1110201011102020,
1110201011102020,
11221122,
1000000011102010,
#SECTION
#BRANCHSTART p,75,90
#N
1001101010002000,
1001101010000000,
1001100010011000,
11111110,
1001101010002000,
1001101010001010,
01010110,
500000000000000000000000000000000008000000000000,
#E
1010200011102010,
1010200011102000,
11201120,
1010100011102000,
1010200011102010,
1010200011102000,
11201120,
500000000000000000000000000000000008000000000000,
#M
1110202011102011,
1110202011102020,
11221122,
1120200011102010,
1110202011102011,
1110202011102020,
1010222010102220,
500000000000000000000000000000000008000000000000,
#GOGOEND
#SECTION
#BRANCHSTART p,75,90
#N
10211120,
11211120,
10211121,
10201120,
10211120,
11211121,
10211120,
10201120,
3000300022202000,
10101110,
11110110,
10103330,
#E
10211120,
11211120,
10211121,
10201120,
10211120,
11211121,
10211120,
10201120,
3000300022202000,
10101110,
11110110,
10103330,
#M
10211120,
11211120,
10211121,
10201120,
10211120,
11211121,
10211120,
10201120,
3000300022202000,
10101110,
11110110,
10103330,
#BRANCHEND
#END
COURSE:Hard
LEVEL:4
SCOREINIT:720
SCOREDIFF:190
#START
100000000000100000000000100000100000100000000000,
100000000000100000100000000000000000200000000000,
100000000000100000000000100000100000100000000000,
100000000000100000100000000000000000200000000000,
100000000000000000100000100000000000200000000000,
100000000000000000100000100000000000000000000000,
100000000000100000000000100000000000100000000000,
100000100100100000000000100000100100100000000000,
100000000000000000100000100000000000200000000000,
100000000000000000100000100000000000000000000000,
100000000000100000000000100000000000100000000000,
100000100100100000000000100000100100100000000000,
300000000000300000000000100000100000100000000000,
100000100000100000000000100000000000100000000000,
100000000100100000100000100000000000200000000000,
100000100000100000000000100000000000100000000000,
100000000100100000100000100000000000200000000000,
100000100000100000000000100000000000100000000000,
100000000100100000100000100000000000400000000000,
100000100000100000000000100000000000100000000000,
100000000100100000100000100000000000300000000000,
100000000000000000100000100000000000200000000000,
100000000000000000100000100000000000200000000000,
100000000000100000000000100000100000100000000000,
100000000000100000000000100000000000000000000000,
100000000000000000100000100000000000200000000000,
100000000000000000100000100000000000200000000000,
100000000000100000000000100000100000100000000000,
500000000000000000000000000000000800000000000000,
300000000000300000000000100000100000100000000000,
#GOGOSTART
100000000100100000100000100000000000200000000000,
100000000100100000100000100000000000000000000000,
100000000100100000000000100000000100100000000000,
100000100000100000000000100000000000000000000000,
100000000100100000100000100000000000200000000000,
100000000100100000100000100000000000100000100000,
000000100000000000100000000000100000100000000000,
100000100000100000100000100000100000100000000000,
100000000100100000100000100000000000200000000000,
100000000100100000100000100000000000000000000000,
100000000100100000000000100000000100100000000000,
100000100000100000100000100000100000100000000000,
100000000100100000100000100000000000200000000000,
100000000100100000100000100000000000100000100000,
000000100000000000100000000000100000100000000000,
500000000000000000000000000000000000000000800000,
#GOGOEND
000000000000000000000000000000000000000000000000,
100000000000000000100000100000000000000000000000,
100000000000100000000000100000000000100000000000,
100000100100100000000000100000100100100000000000,
100000000000000000100000100000000000200000000000,
100000000000000000100000100000000000000000000000,
100000000000100000000000100000000000100000000000,
100000100100100000000000100000100100100000000000,
300000000000300000000000100000100000100000000000,
100000000000100000000000100000100000100000000000,
100000000000000000100000100000000000200000000000,
100000000000100000000000100000100000100000000000,
#END
COURSE:Normal
LEVEL:3
SCOREINIT:780
SCOREDIFF:200
#START
100000000000100000000000100000100000100000000000,
100000000000100000000000100000000000000000000000,
100000000000100000000000100000100000100000000000,
100000000000100000000000100000000000000000000000,
100000000000000000100000100000000000000000000000,
100000000000000000100000100000000000000000000000,
100000000000000000000000100000000000000000000000,
100000000000100000000000100000000000000000000000,
100000000000000000100000100000000000000000000000,
100000000000000000100000100000000000000000000000,
100000000000000000000000100000000000000000000000,
100000000000100000000000100000000000000000000000,
300000000000300000000000100000100000100000000000,
100000000000000000000000100000000000000000000000,
100000000000100000100000100000000000200000000000,
100000000000000000000000100000000000000000000000,
100000000000100000100000100000000000200000000000,
100000000000000000000000100000000000000000000000,
100000000000100000100000100000000000200000000000,
100000000000000000000000100000000000000000000000,
100000000000100000100000100000000000300000000000,
100000000000000000200000200000000000000000000000,
100000000000000000200000200000000000000000000000,
100000000000100000000000100000000000000000000000,
100000000000100000100000100000000000000000000000,
100000000000000000200000200000000000000000000000,
100000000000000000200000200000000000000000000000,
100000000000100000000000100000000000000000000000,
500000000000000000000000000000800000000000000000,
300000000000300000000000300000000000000000000000,
#GOGOSTART
100000000000100000000000100000100000100000000000,
100000000000100000000000100000100000100000000000,
100000000000100000000000100000100000100000000000,
100000000000000000000000200000000000000000000000,
100000000000100000000000100000100000100000000000,
100000000000100000000000100000100000100000000000,
100000000000100000000000100000000000100000000000,
500000000000000000800000000000000000000000000000,
100000000000100000000000100000100000100000000000,
100000000000100000000000100000100000100000000000,
100000000000100000000000100000100000100000000000,
100000000000000000000000200000000000000000000000,
100000000000100000000000100000100000100000000000,
100000000000100000000000100000100000100000000000,
100000000000100000000000100000000000100000000000,
500000000000000000000000000000000000000000800000,
#GOGOEND
000000000000000000000000000000000000000000000000,
100000000000000000100000100000000000000000000000,
100000000000000000000000100000000000000000000000,
100000000000100000000000100000000000000000000000,
100000000000000000100000100000000000000000000000,
100000000000000000100000100000000000000000000000,
100000000000000000000000100000000000000000000000,
100000000000100000000000100000000000000000000000,
300000000000300000000000100000100000100000000000,
100000000000100000000000100000100000100000000000,
100000000000100000000000100000000000000000000000,
100000000000100000000000100000100000100000000000,
#END
COURSE:Easy
LEVEL:4
SCOREINIT:830
SCOREDIFF:220
#START
100000000000100000000000100000000000000000000000,
100000000000100000000000000000000000200000000000,
100000000000100000000000100000000000000000000000,
100000000000100000000000000000000000200000000000,
100000000000000000000000100000000000000000000000,
100000000000000000000000100000000000000000000000,
100000000000000000000000100000000000000000000000,
100000000000000000000000000000000000000000000000,
100000000000000000000000100000000000000000000000,
100000000000000000000000100000000000000000000000,
100000000000000000000000100000000000000000000000,
100000000000000000000000000000000000000000000000,
300000000000300000000000000000000000000000000000,
100000000000000000000000100000000000000000000000,
100000000000000000000000100000000000200000000000,
100000000000000000000000100000000000000000000000,
100000000000000000000000100000000000200000000000,
100000000000000000000000100000000000000000000000,
100000000000000000000000100000000000200000000000,
100000000000000000000000100000000000000000000000,
100000000000000000000000100000000000200000000000,
100000000000100000000000100000000000000000000000,
100000000000100000000000100000000000000000000000,
100000000000100000000000100000000000000000000000,
100000000000100000000000100000000000000000000000,
200000000000200000000000200000000000000000000000,
200000000000200000000000200000000000000000000000,
200000000000200000000000200000000000000000000000,
500000000000000000000000000000800000000000000000,
300000000000000000000000300000000000000000000000,
#GOGOSTART
100000000000100000000000100000000000000000000000,
100000000000100000000000100000000000000000000000,
100000000000100000000000100000000000100000000000,
100000000000100000000000100000000000000000000000,
100000000000100000000000100000000000000000000000,
100000000000100000000000100000000000000000000000,
100000000000100000000000100000000000100000000000,
500000000000000000800000000000000000000000000000,
100000000000100000000000100000000000000000000000,
200000000000200000000000200000000000000000000000,
100000000000100000000000100000000000100000000000,
100000000000100000000000100000000000000000000000,
100000000000100000000000100000000000000000000000,
200000000000200000000000200000000000000000000000,
100000000000100000000000100000000000100000000000,
500000000000000000000000000000000000000000800000,
#GOGOEND
000000000000000000000000000000000000000000000000,
100000000000000000000000100000000000000000000000,
100000000000000000000000100000000000000000000000,
100000000000000000000000000000000000000000000000,
100000000000000000000000100000000000000000000000,
100000000000000000000000100000000000000000000000,
100000000000000000000000100000000000000000000000,
100000000000000000000000000000000000000000000000,
300000000000300000000000000000000000000000000000,
100000000000100000000000100000000000000000000000,
100000000000100000000000000000000000200000000000,
100000000000100000000000100000000000000000000000,
#END