forked from ESE/ESE
482 lines
19 KiB
Plaintext
482 lines
19 KiB
Plaintext
//TJADB Project
|
|
TITLE:Sagaken
|
|
TITLEJA:佐賀県
|
|
SUBTITLE:--Hanawa
|
|
BPM:190.015
|
|
WAVE:Sagaken.ogg
|
|
OFFSET:-2.578
|
|
DEMOSTART:1.309
|
|
|
|
COURSE:Oni
|
|
LEVEL:8
|
|
BALLOON:2,2,4,7
|
|
|
|
|
|
#START
|
|
|
|
|
|
#SCROLL 0.9992111490928214
|
|
200000000000200000000000200000000000200000000000,
|
|
100000000000100000000000100000000000100000000000,
|
|
400000000000400000000000400000000000400000000000,
|
|
300000000000300000000000300000000000300000000000,
|
|
400000000000400000000000400000000000400000000000,
|
|
300000000000300000000000300000000000300000000000,
|
|
100100100100100100100100100100100000300000000300,
|
|
000000000000100000100000000000000000200000000000,
|
|
100000000000100000100000000000000000200000200000,
|
|
100000000000100000100000000000200000200000200000,
|
|
100000000000100000000000000000100000000000100000,
|
|
100000000000100000000000000000000000100000000000,
|
|
400000000000400000000000000000100000100000000000,
|
|
100000000000200000100000100000100000200000000000,
|
|
100000100000200000200000100000100000200000200000,
|
|
#BPMCHANGE 187
|
|
#SCROLL 1.0160427807486632
|
|
300000000000000000000000100000200000100000000000,
|
|
200000000000100000100000200000100000100000200000,
|
|
100000000000100000200000100000200000100000100000,
|
|
100000000000100000100000200000100000200000200000,
|
|
100000000000100000000000100000200000100000100000,
|
|
000000000000000000100000200000100000000000300000,
|
|
000000000000100000100000000000100000100000100000,
|
|
100000000000100000100000200000100000200000200000,
|
|
100000000000000000000000100000200000100000100000,
|
|
000000100000000000000000100000100000100000200000,
|
|
100000000000100000200000100000200000100000200000,
|
|
100000000000100000100000200000100000200000200000,
|
|
100000000000100000000000100000100000200000200000,
|
|
100000100000200000200000100000100000000000300000,
|
|
200000000000200000000000200000000000200000200000,
|
|
100000100000200000200000100000100000200000200000,
|
|
300000000000000000000000100000200000100000000000,
|
|
100000000000100000100000200000100000200000100000,
|
|
100000000000100000200000100000200000100000100000,
|
|
100000000000100000100000200000100000200000200000,
|
|
100000000000100000100000200000100000200000200000,
|
|
100000000000100000100000100000200000100000000000,
|
|
300000000000100000200000100000200000100000000000,
|
|
400000000000400000000000400000000000400000000000,
|
|
400000000000000000000000000000100000100000700000,
|
|
000000000000800000100000200000100000100000700000,
|
|
000000000000800000200000100000200000100000700000,
|
|
000000000000800000000000000000100000100000000000,
|
|
600000000000000000000000000000000008000000000000,
|
|
300000000000000000000000000000000000000000000000,
|
|
300000000000100000000000100000000000100000100000,
|
|
100000100000200000200000100000100000200000200000,
|
|
300000000000000000000000100000100000000000100000,
|
|
100000000000000000000000400000000000400000000000,
|
|
400000000000100000200000100000200000100000100000,
|
|
100000000000100000100000400000000000400000000000,
|
|
400000000000000000000000000000000000000000100000,
|
|
100000100000200000100000200000200000100000100000,
|
|
300000000000100000200000100000200000100000000000,
|
|
400000000000400000000000400000000000400000000000,
|
|
400000000000000000100000100000100000200000200000,
|
|
100000000000100000100000400000000000400000000000,
|
|
400000000000000000000000000000100000000100000000,
|
|
100000000000000000000000400000000000400000000000,
|
|
400000000000000000000000100000100000100000100000,
|
|
200000000000000000000000000000000000000000000000,
|
|
300000000000100000000000100000000000100000100000,
|
|
100000100000200000200000300000000000300000000000,
|
|
#BPMCHANGE 184
|
|
#SCROLL 1.0326086956521738
|
|
300000000000000000000000000000100000100000000100,
|
|
000000000000100000000000000000000000100000000000,
|
|
100000100000100000000000200000100000100000100000,
|
|
200000200000200000000000100000200000200000200000,
|
|
100000000000100000000000000000100000000100000000,
|
|
100000000000100000000000000000000000100000000000,
|
|
100000100000100000100000100000000000200000100000,
|
|
100000000000200000200000000000100000200000200000,
|
|
100000000000100000000000000000200000100000200000,
|
|
100000100000000000100000000000000000100000000000,
|
|
000000000000100000100000200000100000200000100000,
|
|
000000000000100000000000000000400000400000400000,
|
|
100000000000100000000000000000100000200000100000,
|
|
100000200000200000100000100000200000100000100000,
|
|
#BPMCHANGE 188
|
|
#SCROLL 1.0106382978723405
|
|
100000000000100000000000000000100000100000100000,
|
|
#BPMCHANGE 187.5
|
|
#SCROLL 1.0133333333333334
|
|
200000200000100000200000100000100000000000700000,
|
|
#BPMCHANGE 187
|
|
#SCROLL 1.0160427807486632
|
|
000000000000000000000000000000000000800000000000,
|
|
#BPMCHANGE 189
|
|
#SCROLL 1.0052910052910053
|
|
300000000000000000000000300000000000000000000000,
|
|
#BPMCHANGE 190
|
|
#SCROLL 1
|
|
300000000000300000000000300000000000300000000000,
|
|
300000300000200000200000100000100000200000200000,
|
|
300000000000300000000000300000000000300000000000,
|
|
300000300000200000200000100000100000200000200000,
|
|
300000000000100000100000200000100000200000200000,
|
|
100000000000100000100000000000000000000000000000,
|
|
100000100000100000200000100000200000200000100000,
|
|
000000200000200000200000200000000000300000000000,
|
|
|
|
|
|
#END
|
|
|
|
|
|
COURSE:Hard
|
|
LEVEL:5
|
|
BALLOON:8
|
|
SCOREINIT:710
|
|
SCOREDIFF:340
|
|
|
|
|
|
#START
|
|
|
|
|
|
#SCROLL 0.9992111490928214
|
|
200000000000200000000000200000000000200000000000,
|
|
000000000000000000000000000000000000000000000000,
|
|
200000000000200000000000200000000000200000000000,
|
|
100000000000100000000000100000000000100000000000,
|
|
400000000000400000000000400000000000400000000000,
|
|
300000000000300000000000300000000000300000000000,
|
|
500000000000000000000800000000000000100000000100,
|
|
000000000000000000000000000000000000200000000000,
|
|
100000000000100000100000000000000000200000000000,
|
|
100000000000100000100000000000000000200000000000,
|
|
100000000000100000000000000000100000000000100000,
|
|
100000000000100000000000000000000000100000000000,
|
|
100000000000100000000000000000100000000100000000,
|
|
100000000000000000000000000000000000000000000000,
|
|
100000100000200000200000100000100000100000000000,
|
|
#BPMCHANGE 187
|
|
#SCROLL 1.0160427807486632
|
|
300000000000000000000000100000100000100000000000,
|
|
100000000000100000100000100000100000000000000000,
|
|
100000000000100000200000100000200000100000000000,
|
|
100000000000100000100000000000100000200000200000,
|
|
100000000000100000000000100000100000100000100000,
|
|
000000000000000000100000000000100000000000300000,
|
|
000000000000000000000000000000000000000000000000,
|
|
100000000000100000100000000000100000200000200000,
|
|
100000000000000000000000100000100000100000100000,
|
|
000000100000000000000000100000000000100000200000,
|
|
100000000000100000200000100000200000100000200000,
|
|
100000000000100000100000000000100000200000200000,
|
|
100000000000100000000000100000000000200000200000,
|
|
100000100000200000200000100000100000000000300000,
|
|
000000000000000000000000000000000000000000000000,
|
|
100000100000200000200000100000100000100000000000,
|
|
300000000000000000000000100000000000000000000000,
|
|
100000000000100000100000000000100000100000000000,
|
|
100000000000000000000000100000000000000000000000,
|
|
100000000000100000100000000000100000100000000000,
|
|
100000000000000000000000100000000000000000000000,
|
|
100000000000100000100000000000100000100000000000,
|
|
300000000000000000000000000000000000000000000000,
|
|
200000000000200000000000200000000000200000000000,
|
|
200000000000000000000000000000100000000000500000,
|
|
800000000000000000100000200000100000000000500000,
|
|
800000000000000000100000200000100000000000500000,
|
|
000000800000000000000000000000000000000000000000,
|
|
500000000000000000000000000000800000000000000000,
|
|
300000000000000000000000000000000000000000000000,
|
|
300000000000100000000000100000000000100000000000,
|
|
100000100000200000200000100000100000100000000000,
|
|
300000000000000000000000100000100000000000100000,
|
|
100000000000000000000000200000000000200000000000,
|
|
200000000000000000000000100000100000000000100000,
|
|
100000000000100000100000200000000000200000000000,
|
|
200000000000000000000000000000000000000000000000,
|
|
100000100000000000100000100000000000100000000000,
|
|
300000000000000000000000000000000000000000000000,
|
|
200000000000200000000000200000000000200000000000,
|
|
200000000000000000100000100000000000100000100000,
|
|
100000000000100000000000200000000000200000000000,
|
|
200000000000000000000000000000100000000100000000,
|
|
100000000000000000000000200000000000200000000000,
|
|
200000000000000000000000100000100000000000100000,
|
|
100000000000000000000000000000000000000000000000,
|
|
300000000000100000000000100000000000100000000000,
|
|
100000000000100000000000300000000000300000000000,
|
|
#BPMCHANGE 184
|
|
#SCROLL 1.0326086956521738
|
|
300000000000000000000000000000000000000000000000,
|
|
000000000000100000000000000100000000000000100000,
|
|
000000000000000000000000000000000000000000000000,
|
|
100000000000100000000000100000100000100000100000,
|
|
200000000000200000000000200000200000200000200000,
|
|
000000000000000000000000000000100000000100000000,
|
|
100000000000000000000000000000000000000000000000,
|
|
100000000000100000000000100000000000100000100000,
|
|
100000000000200000200000000000200000200000200000,
|
|
000000000000000000000000000000100000100000200000,
|
|
100000100000000000100000000000000000000000000000,
|
|
000000000000100000100000000000100000100000100000,
|
|
000000000000000000000000000000200000200000200000,
|
|
000000000000000000000000000000100000200000100000,
|
|
#BPMCHANGE 188
|
|
#SCROLL 1.0106382978723405
|
|
100000200000200000100000100000200000100000100000,
|
|
#BPMCHANGE 187.5
|
|
#SCROLL 1.0133333333333334
|
|
000000000000000000000000000000100000100000100000,
|
|
#BPMCHANGE 187
|
|
#SCROLL 1.0160427807486632
|
|
200000200000100000100000100000100000000000700000,
|
|
#BPMCHANGE 189
|
|
#SCROLL 1.0052910052910053
|
|
0008,
|
|
#BPMCHANGE 190
|
|
#SCROLL 1
|
|
300000000000000000000000300000000000000000000000,
|
|
100000000000100000000000100000000000100000000000,
|
|
100000100000000000000000000000000000000000000000,
|
|
100000000000100000000000100000000000100000000000,
|
|
100000100000000000000000000000000000000000000000,
|
|
300000000000100000100000100000100000100000000000,
|
|
100000000000100000100000000000000000000000000000,
|
|
100000000000100000200000100000200000200000100000,
|
|
000000200000200000200000200000000000300000000000,
|
|
|
|
|
|
#END
|
|
|
|
|
|
COURSE:Normal
|
|
LEVEL:5
|
|
SCOREINIT:970
|
|
SCOREDIFF:260
|
|
|
|
|
|
#START
|
|
|
|
|
|
#SCROLL 0.9992111490928214
|
|
200000000000200000000000200000000000200000000000,
|
|
000000000000000000000000000000000000000000000000,
|
|
200000000000200000000000200000000000200000000000,
|
|
100000000000100000000000100000000000100000000000,
|
|
200000000000200000000000200000000000200000000000,
|
|
100000000000100000000000100000000000100000000000,
|
|
500000000000000000000800000000000000100000000100,
|
|
000000000000000000000000000000000000100000000000,
|
|
000000000000000000000000000000000000100000000000,
|
|
000000000000000000000000000000000000100000000000,
|
|
100000000000100000000000000000000000000000000000,
|
|
100000000000100000000000000000000000100000000000,
|
|
100000000000100000000000000000000000100000000000,
|
|
100000000000000000000000000000000000000000000000,
|
|
100000000000100000000000100000000000000000000000,
|
|
#BPMCHANGE 187
|
|
#SCROLL 1.0160427807486632
|
|
300000000000000000000000100000000000000000000000,
|
|
100000000000100000000000000000000000100000000000,
|
|
100000000000000000000000100000000000000000000000,
|
|
100000000000100000000000000000000000100000000000,
|
|
100000000000000000000000100000000000000000000000,
|
|
100000000000100000000000000000000000000000300000,
|
|
000000000000000000000000000000000000000000000000,
|
|
100000000000100000000000000000000000100000000000,
|
|
100000000000000000000000100000000000000000000000,
|
|
100000000000100000000000000000000000100000000000,
|
|
100000000000000000000000100000000000000000000000,
|
|
100000000000100000000000000000000000100000000000,
|
|
100000000000000000000000100000000000100000000000,
|
|
100000000000000000000000000000000000000000300000,
|
|
000000000000000000000000000000000000000000000000,
|
|
100000000000100000000000100000000000000000000000,
|
|
300000000000000000000000100000000000000000000000,
|
|
100000000000100000000000000000000000100000000000,
|
|
100000000000000000000000100000000000000000000000,
|
|
100000000000100000000000000000000000100000000000,
|
|
100000000000000000000000000000000000000000000000,
|
|
000000000000100000000000100000000000000000000000,
|
|
300000000000000000000000000000000000000000000000,
|
|
200000000000200000000000200000000000200000000000,
|
|
200000000000000000000000000000000000100000000000,
|
|
100000000000000000000000100000000000000000000000,
|
|
100000000000100000000000000000000000100000000000,
|
|
100000000000000000000000000000000000000000000000,
|
|
500000000000000000000000000000800000000000000000,
|
|
300000000000000000000000000000000000000000000000,
|
|
300000000000000000000000000000000000000000000000,
|
|
100000000000100000000000100000000000000000000000,
|
|
300000000000000000000000100000000000100000000000,
|
|
100000000000000000000000200000000000200000000000,
|
|
200000000000000000000000100000000000100000000000,
|
|
100000000000000000000000200000000000200000000000,
|
|
200000000000000000000000000000000000000000000000,
|
|
100000000000100000000000100000000000000000000000,
|
|
300000000000000000000000000000000000000000000000,
|
|
200000000000200000000000200000000000200000000000,
|
|
200000000000000000000000100000000000100000000000,
|
|
100000000000100000000000200000000000200000000000,
|
|
200000000000000000000000000000100000000100000000,
|
|
100000000000000000000000200000000000200000000000,
|
|
200000000000000000000000100000000000100000000000,
|
|
100000000000000000000000000000000000000000000000,
|
|
300000000000000000000000000000000000000000000000,
|
|
100000000000000000000000300000000000300000000000,
|
|
#BPMCHANGE 184
|
|
#SCROLL 1.0326086956521738
|
|
300000000000000000000000000000000000100000000000,
|
|
100000000000000000000000000000000000000000000000,
|
|
100000000000100000000000100000000000100000000000,
|
|
200000000000200000000000200000000000200000000000,
|
|
000000000000000000000000000000000000100000000000,
|
|
100000000000000000000000000000000000000000000000,
|
|
100000000000100000000000100000000000100000000000,
|
|
100000000000200000000000000000000000200000000000,
|
|
000000000000000000000000000000000000100000000000,
|
|
500000000000000000000000000000800000000000000000,
|
|
000000000000100000000000100000000000100000000000,
|
|
000000000000000000000000000000000000400000000000,
|
|
000000000000000000000000000000000000100000000000,
|
|
100000000000000000000000100000000000100000000000,
|
|
#BPMCHANGE 188
|
|
#SCROLL 1.0106382978723405
|
|
100000000000000000000000000000100000000000000000,
|
|
#BPMCHANGE 187.5
|
|
#SCROLL 1.0133333333333334
|
|
100000000000000000100000000000000000100000000000,
|
|
#BPMCHANGE 187
|
|
#SCROLL 1.0160427807486632
|
|
500000000000000000000000000000800000000000000000,
|
|
#BPMCHANGE 189
|
|
#SCROLL 1.0052910052910053
|
|
300000000000000000000000300000000000000000000000,
|
|
#BPMCHANGE 190
|
|
#SCROLL 1
|
|
100000000000100000000000100000000000100000000000,
|
|
300000000000000000000000000000000000000000000000,
|
|
100000000000100000000000100000000000100000000000,
|
|
300000000000000000000000000000000000000000000000,
|
|
300000000000000000000000100000000000100000000000,
|
|
100000000000100000100000000000000000000000000000,
|
|
100000000000100000000000100000000000100000000000,
|
|
000000200000000000000000200000000000300000000000,
|
|
|
|
|
|
#END
|
|
|
|
|
|
COURSE:Easy
|
|
LEVEL:5
|
|
SCOREINIT:1030
|
|
SCOREDIFF:320
|
|
|
|
|
|
#START
|
|
|
|
|
|
#SCROLL 0.9992111490928214
|
|
200000000000000000000000200000000000200000000000,
|
|
000000000000000000000000000000000000000000000000,
|
|
200000000000000000000000200000000000200000000000,
|
|
000000000000000000000000000000000000000000000000,
|
|
200000000000200000000000200000000000200000000000,
|
|
000000000000000000000000000000000000000000000000,
|
|
500000000000000000000800000000000000100000000100,
|
|
000000000000000000000000000000000000100000000000,
|
|
000000000000000000000000000000000000100000000000,
|
|
000000000000000000000000000000000000100000000000,
|
|
000000000000100000000000000000000000000000000000,
|
|
100000000000100000000000000000000000100000000000,
|
|
000000000000100000000000000000000000100000000000,
|
|
100000000000000000000000000000000000000000000000,
|
|
100000000000000000000000100000000000000000000000,
|
|
#BPMCHANGE 187
|
|
#SCROLL 1.0160427807486632
|
|
300000000000000000000000000000000000000000000000,
|
|
100000000000100000000000000000000000000000000000,
|
|
100000000000000000000000100000000000000000000000,
|
|
100000000000100000000000000000000000000000000000,
|
|
100000000000000000000000100000000000000000000000,
|
|
100000000000000000000000000000000000000000300000,
|
|
000000000000000000000000000000000000000000000000,
|
|
000000000000000000000000000000000000000000000000,
|
|
100000000000000000000000100000000000000000000000,
|
|
100000000000100000000000000000000000000000000000,
|
|
100000000000000000000000100000000000000000000000,
|
|
100000000000100000000000000000000000000000000000,
|
|
100000000000000000000000100000000000000000000000,
|
|
100000000000000000000000000000000000000000300000,
|
|
000000000000000000000000000000000000000000000000,
|
|
100000000000000000000000100000000000000000000000,
|
|
100000000000000000000000100000000000000000000000,
|
|
100000000000100000000000000000000000000000000000,
|
|
100000000000000000000000100000000000000000000000,
|
|
100000000000100000000000000000000000000000000000,
|
|
000000000000000000000000000000000000000000000000,
|
|
000000000000100000000000000000000000000000000000,
|
|
300000000000000000000000000000000000000000000000,
|
|
200000000000000000000000200000000000000000000000,
|
|
200000000000000000000000000000000000100000000000,
|
|
100000000000000000000000100000000000000000000000,
|
|
100000000000000000000000000000000000000000000000,
|
|
100000000000000000000000000000000000000000000000,
|
|
500000000000000000000000000000800000000000000000,
|
|
300000000000000000000000000000000000000000000000,
|
|
300000000000000000000000000000000000000000000000,
|
|
100000000000000000000000100000000000000000000000,
|
|
300000000000000000000000000000000000100000000000,
|
|
100000000000000000000000200000000000000000000000,
|
|
200000000000000000000000000000000000100000000000,
|
|
100000000000000000000000200000000000000000000000,
|
|
200000000000000000000000000000000000000000000000,
|
|
100000000000100000000000000000000000000000000000,
|
|
300000000000000000000000000000000000000000000000,
|
|
200000000000000000000000200000000000000000000000,
|
|
200000000000000000000000100000000000000000000000,
|
|
100000000000000000000000200000000000000000000000,
|
|
200000000000000000000000000000000000000000000000,
|
|
100000000000000000000000200000000000000000000000,
|
|
200000000000000000000000100000000000000000000000,
|
|
100000000000000000000000000000000000000000000000,
|
|
300000000000000000000000000000000000000000000000,
|
|
100000000000000000000000100000000000100000000000,
|
|
#BPMCHANGE 184
|
|
#SCROLL 1.0326086956521738
|
|
100000000000000000000000000000000000100000000000,
|
|
100000000000000000000000000000000000000000000000,
|
|
100000000000000000000000000000000000100000000000,
|
|
100000000000000000000000000000000000300000000000,
|
|
000000000000000000000000000000000000100000000000,
|
|
100000000000000000000000000000000000000000000000,
|
|
100000000000000000000000100000000000000000000000,
|
|
100000000000000000000000000000000000300000000000,
|
|
000000000000000000000000000000000000100000000000,
|
|
100000000000000000000000000000000000000000000000,
|
|
100000000000000000000000100000000000000000000000,
|
|
100000000000000000000000000000000000300000000000,
|
|
000000000000000000000000000000000000100000000000,
|
|
000000000000100000000000000000000000100000000000,
|
|
#BPMCHANGE 188
|
|
#SCROLL 1.0106382978723405
|
|
000000000000100000000000000000000000100000000000,
|
|
#BPMCHANGE 187.5
|
|
#SCROLL 1.0133333333333334
|
|
000000000000100000000000000000000000500000000000,
|
|
#BPMCHANGE 187
|
|
#SCROLL 1.0160427807486632
|
|
000000000000000000000000800000000000000000000000,
|
|
#BPMCHANGE 189
|
|
#SCROLL 1.0052910052910053
|
|
300000000000000000000000300000000000000000000000,
|
|
#BPMCHANGE 190
|
|
#SCROLL 1
|
|
100000000000100000000000100000000000100000000000,
|
|
100000000000000000000000000000000000000000000000,
|
|
100000000000100000000000100000000000100000000000,
|
|
100000000000000000000000000000000000000000000000,
|
|
300000000000000000000000100000000000000000000000,
|
|
100000000000100000000000000000000000000000000000,
|
|
100000000000100000000000100000000000100000000000,
|
|
000000000000000000000000300000000000000000000000,
|
|
|
|
|
|
#END
|
|
|