Files
ESE-ja-fix/01 Pop/Saraba, Itoshiki Kanashimi Tachi yo/Saraba, Itoshiki Kanashimi Tachi yo -ZZ Version-.tja
T
2023-06-15 19:15:39 -05:00

431 lines
4.9 KiB
Plaintext

//TJADB Project
TITLE:Saraba, Itoshiki Kanashimi Tachi yo -ZZ Version-
TITLEJA:サラバ、愛しき悲しみたちよ
SUBTITLE:--Momoiro Clover Z
SUBTITLEJA:ももいろクローバーZ
BPM:168.535
WAVE:Saraba, Itoshiki Kanashimi Tachi yo -ZZ Version-.ogg
OFFSET:-1.709
DEMOSTART:87.402
COURSE:Oni
LEVEL:7
SCOREINIT:550
SCOREDIFF:120
#START
,
,
#BPMCHANGE 167.808
,
,
#BPMCHANGE 167.638
5,
0,
#BPMCHANGE 168.922
000000000000000000000000000000000000000008000000,
#BPMCHANGE 168.412
03030300,
#BPMCHANGE 168
11221020,
1010201000201011,
11221020,
1010201000201022,
21221020,
1010201000201011,
11221020,
03030300,
1010222010102220,
1110111011101000,
1010222010102220,
20201120,
1010222010102220,
1110111011101000,
1010222010102220,
1011101110002000,
11221020,
1010201000201011,
11221020,
1010201000201022,
21221020,
1010201000201011,
11221020,
03030300,
1010222010102220,
1110111011101000,
1010222010102220,
20201120,
1010222010102220,
1110111011101000,
33000303,
2022202040000000,
#GOGOSTART
1010201110102010,
1010201110202010,
1010201110102000,
33330443,
1010201110102010,
1010201110202050,
000000000000000000000000000000000008000000000000,
30030330,
1010222010102010,
1010222010102010,
10101110,
30303330,
#GOGOEND
22202000,
11221120,
22202000,
11221000,
22202000,
11221120,
22202000,
1110222010000000,
#GOGOSTART
10201121,
1011201110112011,
10201121,
1011201120112022,
20201121,
1011201110112011,
11211121,
500000000000000000000000000000000008000000000000,
10201121,
1011201110112011,
10201121,
1011201120112022,
20201121,
1011201110112011,
11211121,
500000000000000000000008000000000000300000300000,
30030030,
40040040,
2010201020102211,
#GOGOEND
1,
#END
COURSE:Hard
LEVEL:4
BALLOON:8,11
SCOREINIT:550
SCOREDIFF:150
#START
0,
0,
#BPMCHANGE 167.808
0,
0,
#BPMCHANGE 167.638
5,
0,
#BPMCHANGE 168.922
000000000000000000000000000000000000000008000000,
#BPMCHANGE 168.412
03030300,
#BPMCHANGE 168
10111020,
10110110,
10111020,
10110110,
10111020,
10110110,
10111020,
03030300,
11201120,
1111,
11201120,
2222,
11201120,
1111,
11201120,
7008,
10111020,
10110110,
10111020,
10110110,
10111020,
10110110,
10111020,
03030300,
11201120,
1111,
11201120,
2222,
11201120,
1111,
33000303,
04,
#GOGOSTART
10101110,
10110110,
10110110,
33330440,
10101110,
10110115,
000000000000000000000000000000000008000000000000,
30030330,
10201120,
10201120,
10101110,
30303330,
#GOGOEND
22202000,
11221120,
22202000,
11221000,
22202000,
11221120,
22202000,
11221000,
#GOGOSTART
10101111,
30301111,
10101111,
40402222,
20101111,
30301111,
1212,
500000000000000000000000000000000008000000000000,
10101111,
30301111,
10101111,
40402222,
20101111,
30301111,
1212,
500000000000000000000008000000000000300000300000,
30030030,
40040040,
9,
#GOGOEND
8,
#END
COURSE:Normal
LEVEL:4
BALLOON:6,8,6,6,8
SCOREINIT:650
SCOREDIFF:183
#START
#SCROLL 0.9
0,
0,
#BPMCHANGE 167.808
0,
0,
#BPMCHANGE 167.638
5,
0,
#BPMCHANGE 168.922
000000000000000000000000000000000008000000000000,
#BPMCHANGE 168.412
03030300,
#BPMCHANGE 168
11,
1101,
11,
1101,
11,
1101,
11,
03030300,
11,
1111,
11,
2222,
22,
1111,
11,
7008,
11,
1101,
11,
1101,
11,
1101,
11,
03030300,
11,
1111,
11,
2222,
22,
1111,
9,
8,
#GOGOSTART
10101110,
10101110,
500000000000000000000000000008000000000000000000,
33330000,
10101110,
10101115,
000000000000000000000000000008000000000000000000,
30030000,
1110,
2220,
10101110,
30303330,
#GOGOEND
22202000,
1110,
22202000,
7008,
22202000,
1110,
22202000,
7008,
#GOGOSTART
10101110,
3330,
10101110,
4440,
10101110,
3330,
1212,
500000000000000000000000000008000000000000000000,
10101110,
3330,
10101110,
4440,
10101110,
3330,
1212,
500000000000000000000008000000000000300000300000,
30030030,
40040040,
9,
#GOGOEND
8,
#END
COURSE:Easy
LEVEL:4
BALLOON:4,5,4,4,5
SCOREINIT:640
SCOREDIFF:215
#START
#SCROLL 0.8
0,
0,
#BPMCHANGE 167.808
0,
0,
#BPMCHANGE 167.638
5,
0,
#BPMCHANGE 168.922
000000000000000000000000000000000008000000000000,
#BPMCHANGE 168.412
03030300,
#BPMCHANGE 168
11,
1100,
11,
1100,
11,
1100,
11,
03030300,
11,
1110,
11,
22,
11,
1110,
11,
7008,
11,
1100,
11,
1100,
11,
1100,
11,
03030300,
11,
1110,
11,
22,
11,
1110,
9,
8,
#GOGOSTART
1110,
1110,
500000000000000000000000000008000000000000000000,
30030000,
1110,
10101005,
000000000000000000000000000008000000000000000000,
30030000,
11,
22,
1110,
3330,
#GOGOEND
2220,
11,
2220,
7008,
2220,
11,
2220,
7008,
#GOGOSTART
11,
1111,
11,
2222,
22,
1111,
11,
500000000000000000000000000008000000000000000000,
11,
1111,
11,
2222,
22,
1111,
11,
500000000000000000000008000000000000000000000000,
33,
44,
9,
#GOGOEND
8,
#END