forked from ESE/ESE
342 lines
11 KiB
Plaintext
342 lines
11 KiB
Plaintext
//TJADB Project
|
||
TITLE:Sen no Yoru o Koete
|
||
TITLEJA:千の夜をこえて
|
||
SUBTITLE:--Aqua Timez/BLEACH: Memories of Nobody
|
||
BPM:69.8
|
||
WAVE:Sen no Yoru o Koete.ogg
|
||
OFFSET:-3.645
|
||
DEMOSTART:82.091
|
||
|
||
COURSE:Oni
|
||
LEVEL:6
|
||
SCOREINIT:800
|
||
SCOREDIFF:190
|
||
|
||
|
||
#START
|
||
|
||
|
||
#SCROLL 1.26436781609
|
||
000000000000000000000000000000000000000000000000,
|
||
#BPMCHANGE 70.2
|
||
#SCROLL 1.25356125356
|
||
000000000000000000000000000000000000000000000000,
|
||
#BPMCHANGE 69.7
|
||
#SCROLL 1.26255380201
|
||
000000000000000000000000000000000000
|
||
#BPMCHANGE 78
|
||
#SCROLL 1.12820512821
|
||
100000000000,
|
||
#BPMCHANGE 88.2
|
||
#SCROLL 0.9977324263
|
||
100100000200000100100200000100000200100000100200,
|
||
#BPMCHANGE 88
|
||
#SCROLL 1
|
||
100100000200000100100200000100000200100000200200,
|
||
#BPMCHANGE 86.3
|
||
#SCROLL 1.01969872538
|
||
100000100000100000200100000000100000200000100100,
|
||
#BPMCHANGE 88
|
||
#SCROLL 1
|
||
000000100000100000200100000000100000200000200000,
|
||
100000100000200000100000000000000000200000200000,
|
||
100000200000100000100000000000100000200000000000,
|
||
100100000100100200000100000200000100100200000100,
|
||
#BPMCHANGE 87.6
|
||
#SCROLL 1.00456621005
|
||
000000000000000000000000000000000000000000000000,
|
||
#BPMCHANGE 88
|
||
#SCROLL 1
|
||
100000100200000100100000100000200000100100200000,
|
||
100000100200000100100000100000200000100100200000,
|
||
100000100200000100100000100000200000100000100000,
|
||
100000000000200000100100000100100000200000000000,
|
||
100000100200000100100000100000200000100100200000,
|
||
100000100200000100100000100000200000100100200000,
|
||
100000100200000100100000100000200000100000100000,
|
||
100000000000200000100100000000100100200200100000,
|
||
100000200100000100100000100000200100000100200000,
|
||
100000200100000100100000100000200100100100200000,
|
||
100000200100000100100000100000200100000100200000,
|
||
100000200100000100200000100000200100100100200000,
|
||
100000200100000100200000100000200100000100200000,
|
||
100000200100000100200000100000200100100100200000,
|
||
100000200100000100200100200200100000000000100000,
|
||
100000100000100000100100000100100000200000100000,
|
||
100000000100000000100000000100000100200000000000,
|
||
|
||
#GOGOSTART
|
||
300000100000200000100100200000100100000200200100,
|
||
100000100000100200200100100000200100000100000100,
|
||
100000100000200000100100200000100100000200200100,
|
||
000100000100100000100100000100200000100100200000,
|
||
100100000200000100100200000100000200100000100000,
|
||
100100000200000100100200000100100200100000100000,
|
||
100000100000200000100200000100200200100000200000,
|
||
100000100000200000100200000000200000100000100000,
|
||
|
||
#GOGOEND
|
||
100000000000200000100000000000100000200000100000,
|
||
100000000000200000100000000000100000200000100000,
|
||
100100000100100200000100000200000100100200000100,
|
||
000000000000000000000000000000000000100000100000,
|
||
|
||
#GOGOSTART
|
||
200000200000100000200000000000100000200000200000,
|
||
300000300000400000400000300000100200000100100000,
|
||
100100000100100200000300000400000100100200000500,
|
||
000000000000000000000000000000008000000000000000,
|
||
|
||
#GOGOEND
|
||
|
||
|
||
#END
|
||
|
||
|
||
COURSE:Hard
|
||
LEVEL:5
|
||
SCOREINIT:1000
|
||
SCOREDIFF:250
|
||
|
||
|
||
#START
|
||
|
||
|
||
#SCROLL 1.26436781609
|
||
000000000000000000000000000000000000000000000000,
|
||
#BPMCHANGE 70.2
|
||
#SCROLL 1.25356125356
|
||
000000000000000000000000000000000000000000000000,
|
||
#BPMCHANGE 69.7
|
||
#SCROLL 1.26255380201
|
||
000000000000000000000000000000000000
|
||
#BPMCHANGE 78
|
||
#SCROLL 1.12820512821
|
||
100000000000,
|
||
#BPMCHANGE 88.2
|
||
#SCROLL 0.9977324263
|
||
100100000200000100100000100000000000200000000000,
|
||
#BPMCHANGE 88
|
||
#SCROLL 1
|
||
100100000200000100100000100000100000200000000000,
|
||
#BPMCHANGE 86.3
|
||
#SCROLL 1.01969872538
|
||
100000000000200000000000100000100000200000100100,
|
||
#BPMCHANGE 88
|
||
#SCROLL 1
|
||
000000100000200000000000100000100000200000000000,
|
||
100000000000200000000000000000000000200000000000,
|
||
100000000000200000000000000000000000200000000000,
|
||
100000000000200200000100000100000100100100000200,
|
||
#BPMCHANGE 87.6
|
||
#SCROLL 1.00456621005
|
||
000000000000000000000000000000000000000000000000,
|
||
#BPMCHANGE 88
|
||
#SCROLL 1
|
||
100000000000200000000100100000100000000000000000,
|
||
100000000000200000000100100000100000200000000000,
|
||
100000000000200000000100100000100000000000000000,
|
||
100000000000200000000000100100000100000200000000,
|
||
100000000000200000000100100000100000000000000000,
|
||
100000000000200000000100100000100000200000000000,
|
||
100000000000200000000100100000100000000000000000,
|
||
100000000000000000000000000000000000000000000000,
|
||
100000000000200000100000000100100000200000000000,
|
||
100000000000200000100000000100100000200000000000,
|
||
100000000000200000100100000100100000200000000000,
|
||
100000000000200000100100000100100000200000000000,
|
||
100000000000200000000000000000000000200000000000,
|
||
100000000000200000100000000000100000200000100000,
|
||
100000000000200000100100000200200000000000100000,
|
||
100000000000200000100100000100500000000000000800,
|
||
000000000000000000000000000000000000000000000000,
|
||
#GOGOSTART
|
||
100000000000200000100100100000100100000200000000,
|
||
100000000000200000100100100000100100000200000000,
|
||
100000000000200000100100100000100100000200000000,
|
||
100000000000000000000000000000000000000000000000,
|
||
100100000200000100100100000100000000200000000000,
|
||
100100000200000100100100000000100000200000000000,
|
||
100000100000200000200000100000100000200000100100,
|
||
000000100000200000000000100000100000200000000000,
|
||
#GOGOEND
|
||
100000000000200000100000000000100000200000000000,
|
||
100000000000200000100000000000100000200000000000,
|
||
100000000000200200000100000100000100100100000500,
|
||
000000000000000000000800000000000000100000000000,
|
||
#GOGOSTART
|
||
100000100000200000100000000000100000200000000000,
|
||
300000300000400000300000000000300000400000000000,
|
||
300000000000200200000300000300000100100100000500,
|
||
000000000000000000000000000000000800000000000000,
|
||
#GOGOEND
|
||
|
||
|
||
#END
|
||
|
||
|
||
COURSE:Normal
|
||
LEVEL:4
|
||
BALLOON:16
|
||
SCOREINIT:1180
|
||
SCOREDIFF:370
|
||
|
||
|
||
#START
|
||
|
||
|
||
#SCROLL 1.26436781609
|
||
000000000000000000000000000000000000000000000000,
|
||
#BPMCHANGE 70.2
|
||
#SCROLL 1.25356125356
|
||
000000000000000000000000000000000000000000000000,
|
||
#BPMCHANGE 69.7
|
||
#SCROLL 1.26255380201
|
||
000000000000000000000000000000000000
|
||
#BPMCHANGE 78
|
||
#SCROLL 1.12820512821
|
||
100000000000,
|
||
#BPMCHANGE 88.2
|
||
#SCROLL 0.9977324263
|
||
100100000100000000000000100000000000000000000000,
|
||
#BPMCHANGE 88
|
||
#SCROLL 1
|
||
100100000100000000000000100000000000000000000000,
|
||
#BPMCHANGE 86.3
|
||
#SCROLL 1.01969872538
|
||
100000000000100000100000100000000000100000000000,
|
||
#BPMCHANGE 88
|
||
#SCROLL 1
|
||
100000000000000000000000000000000000100000000000,
|
||
100000000000100000100000000000000000100000000000,
|
||
100000000000100000100000000000000000000000000000,
|
||
100000000000000000000000100000000000000000000000,
|
||
#BPMCHANGE 87.6
|
||
#SCROLL 1.00456621005
|
||
100000000000000000000000000000000000000000000000,
|
||
#BPMCHANGE 88
|
||
#SCROLL 1
|
||
100000000000200000000000000000000000200000000000,
|
||
100000000000200000000000000000000000200000000000,
|
||
100000000000200000000000000000000000200000000000,
|
||
100000000100000000000000000000000000000000000000,
|
||
100000000000200000000000000000000000200000000000,
|
||
100000000000200000000000000000000000200000000000,
|
||
100000000000200000000000000000000000200000000000,
|
||
100000000100000000000000000000100000100000000000,
|
||
100000000000200000000000100000000000000000000000,
|
||
100000000000200000100000000000100000100000000000,
|
||
100000000000200000000000100000000000000000000000,
|
||
100000000000200000100000000000100000100000000000,
|
||
100000000000200000000000100000000000000000000000,
|
||
100000000000200000100000000000100000100000000000,
|
||
100000000000100000000000100000000000000000000000,
|
||
100000000000100000000000500000000000000000000800,
|
||
000000000000000000000000000000000000000000000000,
|
||
#GOGOSTART
|
||
100000000000100000100000100000000000000000000000,
|
||
100000000000100000100000100000000000000000000000,
|
||
100000000000200000000000100000000000200000000000,
|
||
100000000000000000000000000000000000000000000000,
|
||
100000000100000000000000100000100000200000000000,
|
||
100000000100000000000000100000100000200000000000,
|
||
100000000000000000000000200000000000000000000000,
|
||
100000000000200000000000100000000000200000000000,
|
||
#GOGOEND
|
||
100000000000000000000000000000000000100000000000,
|
||
100000000000000000000000000000000000100000000000,
|
||
100000000000000000000000000000000000000000000000,
|
||
500000000000000000000800000000000000000000000000,
|
||
#GOGOSTART
|
||
300000000000300000300000000000300000300000000000,
|
||
300000000000300000300000000000400000400000000000,
|
||
300000000000000000000000300000000000300000000000,
|
||
700000000000000000000000000000000000800000000000,
|
||
#GOGOEND
|
||
|
||
|
||
#END
|
||
|
||
|
||
COURSE:Easy
|
||
LEVEL:3
|
||
BALLOON:10
|
||
SCOREINIT:1090
|
||
SCOREDIFF:440
|
||
|
||
|
||
#START
|
||
|
||
|
||
#SCROLL 1.26436781609
|
||
000000000000000000000000000000000000000000000000,
|
||
#BPMCHANGE 70.2
|
||
#SCROLL 1.25356125356
|
||
000000000000000000000000000000000000000000000000,
|
||
#BPMCHANGE 69.7
|
||
#SCROLL 1.26255380201
|
||
000000000000000000000000000000000000
|
||
#BPMCHANGE 78
|
||
#SCROLL 1.12820512821
|
||
100000000000,
|
||
#BPMCHANGE 88.2
|
||
#SCROLL 0.9977324263
|
||
100000000000000000000000100000000000200000000000,
|
||
#BPMCHANGE 88
|
||
#SCROLL 1
|
||
100000000000000000000000100000000000200000000000,
|
||
#BPMCHANGE 86.3
|
||
#SCROLL 1.01969872538
|
||
100000000000000000000000100000000000000000000000,
|
||
#BPMCHANGE 88
|
||
#SCROLL 1
|
||
100000000000000000000000000000000000100000000000,
|
||
100000000000100000100000000000000000100000000000,
|
||
100000000000100000100000000000000000000000000000,
|
||
#BPMCHANGE 87.6
|
||
#SCROLL 1.00456621005
|
||
100000000000000000000000100000000000000000000000,
|
||
#BPMCHANGE 88
|
||
#SCROLL 1
|
||
100000000000000000000000000000000000000000000000,
|
||
000000000000200000000000000000000000100000000000,
|
||
000000000000200000000000000000000000100000000000,
|
||
000000000000200000000000000000000000100000000000,
|
||
100000000000000000000000000000000000000000000000,
|
||
000000000000200000000000000000000000100000000000,
|
||
000000000000200000000000000000000000100000000000,
|
||
000000000000200000000000000000000000100000000000,
|
||
100000000000000000000000000000000000000000000000,
|
||
100000000000000000000000100000000000000000000000,
|
||
100000000000000000000000100000000000100000000000,
|
||
100000000000000000000000100000000000000000000000,
|
||
100000000000000000000000100000100000100000000000,
|
||
100000000000000000000000100000000000000000000000,
|
||
100000000000000000000000100000000000100000000000,
|
||
100000000000000000000000100000000000000000000000,
|
||
100000000000100000000000500000000000000000000800,
|
||
000000000000000000000000000000000000000000000000,
|
||
#GOGOSTART
|
||
000000000000100000000000100000000000200000200000,
|
||
000000000000100000000000100000000000000000000000,
|
||
000000000000100000000000200000200000000000000000,
|
||
100000000000000000000000000000000000000000000000,
|
||
100000000000000000000000100000000000200000000000,
|
||
100000000000000000000000100000000000200000000000,
|
||
100000000000000000000000200000000000200000000000,
|
||
100000000000100000000000100000000000100000000000,
|
||
#GOGOEND
|
||
100000000000000000000000000000000000000000000000,
|
||
000000000000000000000000000000000000000000000000,
|
||
100000000000000000000000100000000000100000000000,
|
||
500000000000000000000800000000000000000000000000,
|
||
#GOGOSTART
|
||
100000000000100000100000000000000000000000000000,
|
||
100000000000100000100000000000000000000000000000,
|
||
300000000000300000000000400000000000400000000000,
|
||
700000000000000000000000000000000000800000000000,
|
||
#GOGOEND
|
||
|
||
|
||
#END
|