Files
ESE-ja-fix/01 Pop/Sha Ke/Sha Ke.tja
T
2023-06-15 19:15:39 -05:00

292 lines
11 KiB
Plaintext

//TJADB Project
TITLE:Sha Ke
TITLEJA:煞科
SUBTITLE:--Sammi Cheng
BPM:140
WAVE:Sha Ke.ogg
OFFSET:-3.539
DEMOSTART:61.601
COURSE:Oni
LEVEL:6
#START
000000000000000000000000000000000000000000300000,
300000000000000000000000000000000000000000300000,
300000000000000000000000000000000000000000300000,
300000000000000000000000000000000000000000400000,
300000000000100000000000100100100100100000100100,
100000200000100000200000100000000000100000100000,
100000200000100000200000100000000000100000100000,
100000200000100000200000100000000000100000100000,
100000200000100100200000300000000000000000000000,
#GOGOSTART
100000100100100000200000100000200000100000000000,
100000100100100000200200200000200000100000000000,
100000100100100000200000100000100000200000000000,
200000200200200000200200200000100000200000000000,
#GOGOEND
500000000000000008000000300000000000000000000000,
#GOGOSTART
100000100100100000200000100000200000100000000000,
100000100100100000200200200000200000100000000000,
100000100100100000200000100000100000200000000000,
200000200200200000200200200000100000200000000000,
#GOGOEND
100000200000100000100100100000100000200000200000,
100000200000000000200000000000200000000000200000,
100000200000100000100100100000100000200000200000,
100000200000000000200000000000200000000000200000,
100000200000100000100100100000100000200000200000,
100000200000100000200000100000100100100000100000,
100000000000000000000000000000000000000000000000,
000000000000000000000000000000000000000000000000,
100000200000100000100100100000100000200000200000,
100000200000000000200000000000200000000000200000,
100000200000200000100100100000100000200000200000,
100000200000000000200000000000200000000000200000,
100000200000100000100100100000100000200000200000,
100000200000100000200000100000100100100000100100,
100000200000000000200000100000200000000000200000,
100000200000100000200200100000200000100100100100,
#GOGOSTART
100000100100100000200000100000200000100000000000,
100000100100100000200200200000200000100000000000,
100000100100100000200000100000100000200000000000,
200000200200200000200200100000100000200000000000,
100000100100100000200000100000200000100000000000,
100000100100100000200200200000200000100000200000,
100000100100100000200000100000100100100000200000,
100000100100100000200200100000100000200000300000,
300000100100100000200000100000200000100000000000,
100000100100100000200200200000200000100000000000,
100000100100100000200000100000100000200000000000,
200000200200200000200200100000100000200000000000,
100000100100100000200000100000200000100000000000,
100000100100100000200200200000200000100000200000,
100000100100100000200000100000100100100000200000,
100000100100100000200200100000100000200000300000,
#GOGOEND
3,
#END
COURSE:Hard
LEVEL:5
#START
000000000000000000000000000000000000000000300000,
300000000000000000000000000000000000000000300000,
300000000000000000000000000000000000000000300000,
300000000000000000000000000000000000000000300000,
300000000000100000000000200200200200200000000000,
100000200000100000200000100000000000100000100000,
100000200000100000200000100000000000100000100000,
100000200000100000200000100000000000100000100000,
100000200000100000200000300000000000000000000000,
#GOGOSTART
100000100100100000000000100000100000100000000000,
100000100100100000000000100000100000100000000000,
100000100100100000000000100000100000200000000000,
200000200200200000200200200000200000200000000000,
#GOGOEND
500000000000000000000080000000000000000000000000,
#GOGOSTART
100000100100100000000000100000100000100000000000,
100000100100100000000000100000100000100000000000,
100000100100100000000000100000100000200000000000,
200000200200200000200200200000200000200000000000,
#GOGOEND
100000000000100000000000100000100000200000000000,
100000200000000000200000000000200000000000200000,
100000000000100000000000100000100000200000000000,
100000200000000000200000000000200000000000200000,
100000000000100000000000100000100000200000000000,
100000200000100000200000100000100000100000100100,
100000000000000000000000000000000000000000000000,
000000000000000000000000000000000000000000000000,
100000000000100000000000100000100000200000000000,
100000200000000000200000000000200000000000200000,
100000000000100000000000200000200000200000000000,
100000200000000000200000000000200000000000200000,
100000000000100000000000100000100000200000000000,
100000200000100000200000100000100000100000100100,
100000000000000000600000000000000000000000000000,
000000000000000000000080000000000000000000100100,
#GOGOSTART
100000000000200000000000100000100000200000000000,
100000000000100000000000100000100000100000000000,
100000000000100000000000100000100000200000000000,
100000100000200000100000100000000000000000100100,
100000000000100000000000100000100000200000000000,
100000000000200000000000100000100000100000000000,
100000000000100000000000100000100000200000100000,
100000100100100000100100100000000000000000000000,
300000000000100000000000100000100000400000100000,
100000000000400000000000100000100000100000000000,
100000000000100000000000100000100000400000100000,
100000100000400000100000100000000000000000100100,
100000000000100000000000100000100000400000100000,
100000000000400000000000100000100000100000000000,
100000000000100000000000100000100000400000100000,
100000100100100000100100100000000000000000300000,
#GOGOEND
300000000000000000000000000000000000000000000000,
#END
COURSE:Normal
LEVEL:4
#START
000000000000000000000000000000000000000000300000,
300000000000000000000000000000000000000000300000,
300000000000000000000000000000000000000000300000,
300000000000000000000000000000000000000000300000,
300000000000300000000000300000000000000000000000,
100000000000100000000000100000000000000000000000,
100000000000100000000000100000000000000000000000,
100000000000100000000000100000000000000000000000,
500000000000000000000000000080000000000000000000,
#GOGOSTART
100000000000100000000000100000100000100000000000,
100000000000100000000000100000100000100000000000,
100000000000100000000000100000100000100000000000,
200000000000200000000000200000000000000000000000,
#GOGOEND
500000000000000000000080000000000000000000000000,
#GOGOSTART
100000000000100000000000100000100000100000000000,
100000000000100000000000100000100000100000000000,
100000000000100000000000100000100000100000000000,
200000000000200000000000200000000000000000000000,
#GOGOEND
100000000000100000000000100000000000000000000000,
100000000000000000000000000000000000000000000000,
100000000000100000000000100000000000000000000000,
100000000000000000000000000000000000000000000000,
100000000000100000000000100000000000100000000000,
100000000000100000100000100000000000100000000000,
100000000000000000000000000000000000000000000000,
000000000000000000000000000000000000000000000000,
100000000000100000000000100000000000000000000000,
100000000000000000000000000000000000000000000000,
200000000000200000000000200000000000000000000000,
200000000000000000000000000000000000000000000000,
100000000000100000000000100000000000100000000000,
100000000000100000100000100000000000100000000000,
100000000000000000600000000000000000000000000000,
000000000000000000000080000000000000000000000000,
#GOGOSTART
100000000000100000000000100000100000100000000000,
100000000000100000000000100000000000000000000000,
100000000000100000000000100000100000100000000000,
200000000000200000000000200000000000000000000000,
100000000000100000000000100000100000100000000000,
100000000000100000000000100000000000000000000000,
100000000000100000000000100000100000100000000000,
500000000000000000000000000080000000000000000000,
100000000000100000000000100000100000100000000000,
100000000000100000000000100000100000100000000000,
100000000000100000000000100000100000100000000000,
200000000000200000000000200000000000000000000000,
100000000000100000000000100000100000100000000000,
100000000000100000000000100000100000100000000000,
100000000000100000000000100000100000100000000000,
600000000000000000000000000000000008000000000000,
#GOGOEND
3,
#END
COURSE:Easy
LEVEL:3
#START
000000000000000000000000000000000000000000000000,
300000000000000000000000000000000000000000000000,
300000000000000000000000000000000000000000000000,
300000000000000000000000000000000000000000000000,
300000000000300000000000300000000000000000000000,
100000000000000000000000000000000000100000000000,
100000000000000000000000000000000000100000000000,
100000000000000000000000000000000000100000000000,
500000000000000000000000000080000000000000000000,
#GOGOSTART
100000000000100000000000100000000000000000000000,
100000000000100000000000100000000000000000000000,
100000000000100000000000100000000000000000000000,
200000000000200000000000200000000000000000000000,
#GOGOEND
500000000000000000000080000000000000000000000000,
#GOGOSTART
100000000000100000000000100000000000000000000000,
100000000000100000000000100000000000000000000000,
100000000000100000000000100000000000000000000000,
200000000000200000000000200000000000000000000000,
#GOGOEND
100000000000000000000000100000000000000000000000,
100000000000000000000000000000000000000000000000,
100000000000000000000000100000000000000000000000,
100000000000000000000000000000000000000000000000,
100000000000000000000000100000000000000000000000,
100000000000100000000000100000000000100000000000,
100000000000000000000000000000000000000000000000,
000000000000000000000000000000000000000000000000,
100000000000000000000000100000000000000000000000,
100000000000000000000000000000000000000000000000,
200000000000000000000000200000000000000000000000,
200000000000000000000000000000000000000000000000,
100000000000000000000000100000000000000000000000,
100000000000100000000000100000000000100000000000,
100000000000000000600000000000000000000000000000,
000000000000000000000080000000000000000000000000,
#GOGOSTART
100000000000000000000000100000000000100000000000,
100000000000000000000000100000000000100000000000,
100000000000000000000000100000000000100000000000,
300000000000300000000000300000000000000000000000,
100000000000000000000000100000000000100000000000,
100000000000000000000000100000000000100000000000,
100000000000000000000000100000000000100000000000,
500000000000000000000000000080000000000000000000,
100000000000000000000000100000000000200000000000,
000000000000200000000000000000000000000000000000,
100000000000000000000000100000000000200000000000,
000000000000200000000000000000000000000000000000,
100000000000000000000000100000000000200000000000,
000000000000200000000000000000000000000000000000,
100000000000100000000000100000000000100000000000,
600000000000000000000000000008000000000000000000,
#GOGOEND
3,
#END