Files
ESE-ja-fix/01 Pop/Shukumei/Shukumei.tja
T
2023-01-17 00:45:18 -05:00

206 lines
6.0 KiB
Plaintext

//TJADB Project
TITLE:Shukumei
TITLEJA:宿命
SUBTITLE:--Official HIGE DANdism
SUBTITLEJA:Official髭男dism
BPM:82
WAVE:Shukumei.ogg
OFFSET:-0.188
DEMOSTART:58.716
COURSE:Oni
LEVEL:7
BALLOON:20
SCOREINIT:3450
SCOREDIFF:0
#START
1222102212202211,
100200200200100000200200100200200000200020001000,
1222121002102210,
500000000008000000500000000000000000000008000000,
1001021000002112,
1021021000002020,
1021021000002020,
1021221000012210,
1001021000002112,
1021021000002020,
1021221000002020,
1021211000012220,
1221201221201222,
1021021002211021,
1221201221201222,
1021021002211212,
1221201221202211,
1221201221202211,
1001001001001050,
000000000000000000000008000000000000000000000000,
#GOGOSTART
3012102101221021,
1012102102112222,
1101201101221121,
2200404030303030,
3012102101221021,
1012102102112222,
1101201101221121,
100000000200000000500000000000000008000000000200,
1002001000201020,
1007000000000080,
#GOGOEND
3003003003003000,
#END
COURSE:Hard
LEVEL:5
BALLOON:18,13
SCOREINIT:6810
SCOREDIFF:0
#START
300000000000200000100000000000000000200000000000,
300000000100000000100000000000000000200000000000,
300000000000200000100000000000000000200000000000,
700000000000000000000000000000000800000000000000,
100000000100000000100000000000000000200000000000,
100000000100000000100000000000000000200000000000,
100000000100000000100000000000000000200000000000,
100000000100000000100000000000000000200000000000,
100000000100200000100000000000000000200000000000,
100000000100200000100000000000000000200000000000,
100000000100200000100000000000000000200000000000,
100000000100200000100000000000000000200000000000,
200000000200200000200000000200200000200000000000,
100000000100000000100000000000000000000000000000,
200000000200200000200000000200200000200000000000,
100000000100000000100000000000000000000000000000,
200000000200200000200000000200200000200000000000,
200000000200200000200000000200200000200000000000,
100000000100000000100000000100000000100000500000,
000000000000000000000080000000000000000000000000,
#GOGOSTART
300000000000000000100100000100100000200000000000,
300000000000000000100100000100100000200000000000,
300000000000000000100100000100000000200000000100,
100100000000400000400000400000400000400000400000,
300000000000000000100100000100100000200000000000,
300000000000000000100100000100100000200000000000,
300000000000000000100100000100000000200000000100,
100000000100000000500000000000000080000000000100,
100000000100000000100000000000100000100000100000,
100000000700000000000000000000000800000000000000,
300000000300000000300000000300000000300000000000,
#GOGOEND
#END
COURSE:Normal
LEVEL:2
BALLOON:13,13
SCOREINIT:14150
SCOREDIFF:0
#START
300000000000000000100000000000000000000000000000,
300000000000000000100000000000000000000000000000,
300000000000000000100000000000000000000000000000,
700000000000000000000000000000800000000000000000,
100000000000000000100000000000000000000000000000,
100000000100000000100000000000000000000000000000,
100000000000000000100000000000000000000000000000,
100000000100000000100000000000000000000000000000,
100000000000000000100000000000000000000000000000,
100000000100000000100000000000000000000000000000,
100000000000000000100000000000000000000000000000,
100000000100000000100000000000000000000000000000,
200000000000000000200000000000000000000000000000,
100000000100000000100000000000000000000000000000,
200000000000000000200000000000000000000000000000,
100000000100000000100000000000000000000000000000,
200000000000000000200000000000000000000000000000,
200000000000000000200000000000000000000000000000,
500000000000000000000000000000000000000000000000,
000000000000000000000080000000000000000000000000,
#GOGOSTART
300000000000000000100000000000000000200000000000,
300000000000000000100000000000000000200000000000,
300000000000000000100000000000000000200000000000,
300000000000400000400000300000300000300000300000,
300000000000000000100000000000000000200000000000,
300000000000000000100000000000000000200000000000,
300000000000000000100000000000000000200000000000,
500000000000000000000000000000000080000000000000,
600000000000000000000000000000000080000000000000,
700000000000000000000000000000000800000000000000,
300000000300000000300000000300000000300000000000,
#GOGOEND
#END
COURSE:Easy
LEVEL:2
BALLOON:10,10
SCOREINIT:21570
SCOREDIFF:0
#START
300000000000000000000000000000000000000000000000,
300000000000000000000000000000000000000000000000,
300000000000000000000000000000000000000000000000,
700000000000000000000000000000800000000000000000,
100000000000000000100000000000000000000000000000,
100000000000000000100000000000000000000000000000,
100000000000000000100000000000000000000000000000,
100000000000000000100000000000000000000000000000,
100000000000000000100000000000000000000000000000,
100000000000000000100000000000000000000000000000,
100000000000000000100000000000000000000000000000,
100000000000000000100000000000000000000000000000,
200000000000000000000000000000000000000000000000,
100000000000000000100000000000000000000000000000,
200000000000000000000000000000000000000000000000,
100000000000000000100000000000000000000000000000,
200000000000000000000000000000000000000000000000,
200000000000000000000000000000000000000000000000,
500000000000000000000000000000000000000000000000,
000000000000000000000080000000000000000000000000,
#GOGOSTART
300000000000000000100000000000000000000000000000,
300000000000000000100000000000000000000000000000,
300000000000000000100000000000000000000000000000,
300000000000000000000000300000300000300000300000,
300000000000000000100000000000000000000000000000,
300000000000000000100000000000000000000000000000,
300000000000000000100000000000000000000000000000,
500000000000000000000000000000000080000000000000,
600000000000000000000000000000000080000000000000,
700000000000000000000000000000000800000000000000,
300000000000000000000000000000000000300000000000,
#GOGOEND
#END