Files
ESE-ja-fix/01 Pop/Soba ni Iru ne/Soba ni Iru ne.tja
T
2023-06-15 19:15:39 -05:00

238 lines
8.5 KiB
Plaintext

//TJADB Project
TITLE:Soba ni Iru ne
TITLEJA:そばにいるね
SUBTITLE:--Thelma Aoyama feat. SoulJa
BPM:80
WAVE:Soba ni Iru ne.ogg
OFFSET:-3.375
DEMOSTART:98.999
COURSE:Oni
LEVEL:5
BALLOON:14
SCOREINIT:830
SCOREDIFF:190
#START
200000200200000000200000200000200200000000200000,
200000200200000000200000200000000000000000000000,
200000200200200000200200000000200000000000200000,
200000200200000000200000200000000100100000100000,
100000200200100000200000100000200200100000200000,
100200200200100000200000100000200200100000200000,
100000200200100000200000100000200200100000200000,
100000200200100100200000100100200200200000000000,
#GOGOSTART
100000000000200000100200100100200000100000200000,
100000000000200000100200100100200000100000200000,
100000000000200000100200100100200000100000200000,
100000000000200000100200100100200200100100200000,
100000000000200000100200100100200000100000200000,
100000000000200000100200100100200000100000200000,
100000000000200000100200100100200000100000200000,
100000000000200000100200100100100100200000200000,
7008,
100000000000200000000200100100100000200000000000,
100000000000200000000200100100100000200000000000,
100000000000200000000200100100100000200000000000,
#GOGOEND
100000000000200000000100100000100000200000100000,
100000000000200000000100100000100000200000100000,
100000000000200000000100100000100000200000100000,
100000000000200000000100100000100000200100100000,
100000000000200000100200100000100000200000100000,
100000000000200000100200100000100000200000100000,
100000000000200000100200100000100000200000100000,
100000000000200000100000100000000000000000000000,
100000000000200000100100100000100100200000100100,
100000100100200000100100100000100100000100100000,
100000000000200000100100100000100100200000100100,
100000100100200100100100100000000200200000000000,
100000200200000000200200100000200200000000200200,
100000200200000000200200100000200100100000200200,
100000200200200000200200000000200000000000200200,
100000200200000000200200100000200100100000200000,
100000200200100000200000100100200200100000200000,
100000200200100000200000100100200200100000200000,
100000200200100000200000100100200200100000200000,
100000200200100100200000500000000000000000000008,
#END
COURSE:Hard
LEVEL:4
BALLOON:12
SCOREINIT:800
SCOREDIFF:220
#START
200000200000000000000000200000200000000000000000,
200000200000200000200000200000000000000000000000,
200000200000000000000000200000200000000000000000,
200000200000200000200000200000000000100000000000,
100000200000100000000000100100100000000000000000,
100000200000100000000000100100100000000000000000,
100000200000100000000000100100100000000000000000,
100000200000100000100100100000000000300000000000,
#GOGOSTART
100000000000200000100000100100100000100000200000,
100000000000200000100000100100100000100000200000,
100000000000200000100000100100100000100000200000,
100000000000200000100000100100100000200200200000,
100000000000200000100000100100100000100000200000,
100000000000200000100000100100100000100000200000,
100000000000200000100000100100100000100000200000,
100000000000200000100000100100100000200000200000,
700000000000000000000000000000000800000000000000,
100000000000200000000000100100100000200000000000,
100000000000200000000000100100100000200000000000,
100000000000200000000000100100100000200000000000,
#GOGOEND
100000000000000000000000100000100000200000100000,
100000000000000000000000100000100000200000100000,
100000000000000000000000100000100000200000100000,
100000000000000000000000100000100000200200200000,
100000000000200000000000100000100000200000100000,
100000000000200000000000100000100000200000100000,
100000000000200000000000100000100000200000100000,
100000000000200000100000100000000000000000000000,
100000000000200000100100100000100000200000100000,
100000000000200000100100100000100000200000200000,
100000000000200000100100100000100000200000100000,
100000000000200000100100100000000000000000000000,
100000200000000000200000100000200000000000200000,
100000200000200000200000100000200200200000000000,
100000200000200000000000100000200000200000000000,
100000200200200000200000100000200200200000000000,
100000200000100000000000100100100000200000000000,
100000200000100000000000100100100000200000000000,
100000200000100000000000100100100000200000000000,
100000200000100100100000500000000000000000000800,
#END
COURSE:Normal
LEVEL:4
BALLOON:10
SCOREINIT:1280
SCOREDIFF:440
#START
200000000000000000000000200000000000000000000000,
200000000000200000000000200000000000000000000000,
200000000000000000000000200000000000000000000000,
200000000000200000000000200000000000000000000000,
100000000000100000100000100000000000000000000000,
100000000000100000000000100000100000100000000000,
100000000000100000100000100000000000000000000000,
100000000000000000000000100000000000000000000000,
#GOGOSTART
100000000000200000000000000000000000100000000000,
100000000000200000000000000000000000100000000000,
100000000000200000000000000000000000100000000000,
100000000000200000000000000000000000000000000000,
100000000000200000000000000000000000100000000000,
100000000000200000000000000000000000100000000000,
100000000000200000000000000000000000100000000000,
100000000000200000000000100000000000000000000000,
700000000000000000000000000000800000000000000000,
100000000000200000000000000000000000200000000000,
100000000000200000000000000000000000200000000000,
100000000000200000000000000000000000000000000000,
#GOGOEND
100000000000200000000000100000000000000000000000,
100000000000100000100000100000000000000000000000,
100000000000200000000000100000000000000000000000,
100000000000100000100000100000000000000000000000,
100000000000200000000000100000000000000000000000,
100000000000100000100000100000000000000000000000,
100000000000200000000000100000100000100000000000,
100000000000100000100000100000000000000000000000,
100000000000200000000000100000100000100000000000,
100000000000200000000000100000100000100000000000,
100000000000200000000000100000100000100000000000,
100000000000000000000000000000000000000000000000,
100000000000200000000000100000000000200000000000,
100000000000200000200000200000000000000000000000,
100000000000200000000000100000000000200000000000,
100000000000200000200000200000000000000000000000,
100000000000100000100000100000000000000000000000,
100000000000200000000000100000100000100000000000,
100000000000100000100000100000000000000000000000,
100000000000100000000000500000000000000000000008,
#END
COURSE:Easy
LEVEL:2
SCOREINIT:1010
SCOREDIFF:480
#START
200000000000000000000000200000000000000000000000,
200000000000000000000000000000000000000000000000,
200000000000000000000000200000000000000000000000,
200000000000000000000000000000000000000000000000,
100000000000100000000000100000000000000000000000,
100000000000100000000000100000000000000000000000,
100000000000100000000000100000000000000000000000,
100000000000100000000000100000000000000000000000,
#GOGOSTART
100000000000000000000000100000000000100000000000,
100000000000000000000000100000000000100000000000,
100000000000000000000000100000000000100000000000,
100000000000000000000000100000000000100000000000,
100000000000000000000000100000000000100000000000,
100000000000000000000000100000000000100000000000,
100000000000000000000000100000000000100000000000,
100000000000000000000000100000000000100000000000,
100000000000000000000000100000000000000000000000,
100000000000000000000000100000000000000000000000,
100000000000000000000000100000000000000000000000,
100000000000000000000000000000000000000000000000,
#GOGOEND
100000000000000000000000000000000000100000000000,
100000000000000000000000000000000000000000000000,
100000000000100000000000100000000000000000000000,
100000000000000000000000000000000000000000000000,
100000000000100000000000000000000000100000000000,
100000000000100000000000000000000000000000000000,
100000000000100000000000100000000000000000000000,
100000000000100000000000100000000000000000000000,
000000000000100000000000000000000000100000000000,
000000000000100000000000100000000000000000000000,
100000000000000000000000100000000000000000000000,
100000000000100000000000100000000000000000000000,
100000000000200000000000000000000000200000000000,
000000000000200000000000200000000000000000000000,
200000000000200000000000000000000000200000000000,
000000000000200000000000200000000000000000000000,
100000000000100000000000100000000000000000000000,
100000000000100000000000100000000000000000000000,
100000000000100000000000100000000000000000000000,
100000000000000000000000500000000000000000000008,
#END