Files
ESE-ja-fix/01 Pop/Sukatto Baachan no Uta/Sukatto Baachan no Uta.tja
T
2023-06-15 19:05:10 -05:00

288 lines
3.5 KiB
Plaintext

//TJADB Project
TITLE:Sukatto Baachan no Uta
TITLEJA:スカッとばあちゃんの歌
SUBTITLE:--HYADAIN/Tsukai TV Skat Japan
SUBTITLEJA:「痛快TVスカッとジャパン」より
BPM:150
WAVE:Sukatto Baachan no Uta.ogg
OFFSET:-1.734
DEMOSTART:0.884
COURSE:Oni
LEVEL:8
BALLOON:30
SCOREINIT:490
SCOREDIFF:150
#START
3022202020222020,
2022202010002000,
3022202020222220,
2021021010002000,//4
#GOGOSTART
1022102210210210,
1221021020112110,
1022102210210210,
200200000200200000200200500000000008000000200200,
1022102210210210,
1221021020001111,
2011201120112011,
200000100200000100200000500000000008000000000000,//12
#GOGOEND
1000200202202002,
1020200202101010,
1000200202202002,
1020102102101212,
1000200202202002,
1000200202101010,
11221020,
1000222210004000,
100000100100200000101010100000100100200000200000,
100000101010200000101010100000100100200000100000,
100000100100200000101010100000100100200000200000,
100000101010200000101010100000100100200000100000,
100000100100200000101010100000100100200000200000,
100000101010200000101010100000100100200000100000,
100000100100200000101010100000100100200000101010,
1011201120112010,
100000100100200000101010100000100100200000200000,
100000100100200200100100200000101010200000100000,
100000100100200000101010100000100100200000200000,
100000100100200200100100200000101010200000100000,
4021021020102010,
4021021020102010,
4021021020102010,
4021021020102010,
4021021040104010,
4021021040104010,
4001201040012010,
600000000000000008000000300000400000000000300000,//40
#GOGOSTART
1120112022201120,
2220112030400030,
1120112022201120,
2220112030400030,
1120112022201120,
2220112022201120,
32323232,
1122100030400030,
1120112022201120,
2021012022111000,//50
#GOGOEND
7,
,
8,
#END
COURSE:Hard
LEVEL:4
BALLOON:25
SCOREINIT:830
SCOREDIFF:240
#START
32,
21,
32,
2002002010000000,//4
#GOGOSTART
1000100010010010,
1001001020000000,
1000100010010010,
2002002020000000,
1000100010010010,
1001001020000000,
3333,
3003003030000000,//12
#GOGOEND
1,
00000111,
1,
1000100100101010,
1,
00000111,
11221020,
1210,
10201022,
1210,
10201022,
1210,
10201022,
1212,
1,
,
10201122,
1210,
10201122,
1210,
3003003020002000,
3003003020002000,
3003003020002000,
3003003020002000,
3003003040004000,
3003003040004000,
3232,
600000000008000000000000100000200000000000100000,//40
#GOGOSTART
10102202,
22021201,
10102202,
22021201,
10102202,
22022202,
3333,
44401201,
10102202,
22022202,//50
#GOGOEND
7,
,
8,
#END
COURSE:Normal
LEVEL:4
BALLOON:20
#START
32,
2,
32,
22,//4
#GOGOSTART
1110,
12,
1110,
22,
1110,
12,
3333,
600000000000000000000000000008000000000000000000,//12
#GOGOEND
1,
,
11,
1,
1,
,
11,
1220,
1002,
2,
1002,
2,
1002,
2022,
1,
,
1002,
2,
1002,
2,
3022,
3022,
3022,
3022,
3022,
3022,
33,
40001201,//40
#GOGOSTART
1100,
00001201,
1100,
00001201,
1100,
,
3333,
30001201,
1100,
500000000000000000000008000000000000000000000000,//50
#GOGOEND
7,
,
8,
#END
COURSE:Easy
LEVEL:3
BALLOON:15
#START
3,
2,
3,
2,//4
#GOGOSTART
1110,
1,
1110,
1,
1110,
1,
3333,
600000000000000000000000000008000000000000000000,//12
#GOGOEND
1,
,
11,
1,
1,
,
11,
1,
1,
2,
1,
2,
1,
22,
1,
,
1,
2,
1,
2,
3,
3,
3,
3,
32,
32,
33,
600000000000000000000008000000000000000000000000,//40
#GOGOSTART
11,
1011,
11,
1011,
11,
1,
3330,
3,
11,
3330,//50
#GOGOEND
7,
,
8,
#END