Files
ESE-ja-fix/01 Pop/Survival/Survival.tja
T
2023-06-15 19:15:39 -05:00

412 lines
8.2 KiB
Plaintext

//TJADB Project
TITLE:Survival
TITLEJA:サバイバル
SUBTITLE:--GLAY
SUBTITLEJA:GLAY
BPM:160
WAVE:Survival.ogg
OFFSET:-4.748
DEMOSTART:57.938
COURSE:Hard
LEVEL:7
#START
#SCROLL 0.9875
000000000000000000000000100000100000100000300000,
#BPMCHANGE 158
#SCROLL 1
000000000000200000000000100000100000100000300000,
000000000000200000000000100000100000100000300000,
000000200000100000200000100000100000200000200000,
#BPMCHANGE 151
#SCROLL 1.0463576158940397
100000100100
#BPMCHANGE 156
#SCROLL 1.0128205128205128
100000000000
#BPMCHANGE 183
#SCROLL 0.8633879781420765
100000100000
#BPMCHANGE 146
#SCROLL 1.082191780821918
100000300000,
#BPMCHANGE 152
#SCROLL 1.0394736842105263
000000000000
#BPMCHANGE 181
#SCROLL 0.8729281767955801
200000000000
#BPMCHANGE 158
#SCROLL 1
100000100000100000300000,
000000000000200000000000100000100000100000300000,
#BPMCHANGE 155
#SCROLL 1.0193548387096774
000000200000
#BPMCHANGE 159
#SCROLL 0.9937106918238994
100000200000
#BPMCHANGE 158
#SCROLL 1
100000100000
#BPMCHANGE 151
#SCROLL 1.0463576158940397
200000200000,
#MEASURE 2/4
#BPMCHANGE 162
#SCROLL 0.9753086419753086
100000100000
#BPMCHANGE 159
#SCROLL 0.9937106918238994
200000500000,
#MEASURE 3/4
000000000000000000000008000000000000,
100000200200
#BPMCHANGE 150
#SCROLL 1.0533333333333332
200000100000
#BPMCHANGE 175
#SCROLL 0.9028571428571428
200200200000,
#MEASURE 2/4
#BPMCHANGE 149
#SCROLL 1.0604026845637584
100000000000
#BPMCHANGE 160
#SCROLL 0.9875
000000000000,
#MEASURE 4/4
#BPMCHANGE 147
#SCROLL 1.0748299319727892
100000000000
#BPMCHANGE 158
#SCROLL 1
200000000000100000000100100000200200,
000000100000200000000000100000100000200000000000,
100000000000200000000000100000100000200000100000,
000000100000200000000000100000000200000000200000,
100000000000200000000000100000000100100000200200,
000000100000200000000000100000100000200000200000,
100000100000200000200000100000100000200000200000,
00000010000020000010000000000010000
#BPMCHANGE 153
#SCROLL 1.0326797385620916
0000000100000,
#BPMCHANGE 163
#SCROLL 0.9693251533742331
100000000000
#BPMCHANGE 158
#SCROLL 1
200000000000100000000100100000200200,
000000100000200000000000100000100000200000000000,
100000000000200000000000100000100000
#BPMCHANGE 155
#SCROLL 1.0193548387096774
200000100000,
#BPMCHANGE 158
#SCROLL 1
000000100000200000100000
#BPMCHANGE 156
#SCROLL 1.0128205128205128
000000100000
#BPMCHANGE 158
#SCROLL 1
000000100000,
100000000000200000000000100000000100100000200200,
000000100000200000000000100000100000200000200000,
100000100000200000200000100000100000200000200000,
300000300000300000300000
#BPMCHANGE 167
#SCROLL 0.9461077844311377
300000300000
#BPMCHANGE 156
#SCROLL 1.0128205128205128
300000300000,
#BPMCHANGE 153
#SCROLL 1.0326797385620916
300000000000
#BPMCHANGE 158
#SCROLL 1
100000100000000000100100100000100000,
100000000000200000100000000000100100100000100000,
100000000000100000100000000000100100100000100000,
100000000000200000100000000000200200200000200000,
100000000000200000200000000000200200
#BPMCHANGE 152
#SCROLL 1.0394736842105263
200000200000,
#BPMCHANGE 158
#SCROLL 1
100000000000200000100000000000200200200000200000,
100000100000200000200000100000100000
#BPMCHANGE 162
#SCROLL 0.9753086419753086
200000100100,
#BPMCHANGE 152
#SCROLL 1.0394736842105263
100000200000
#BPMCHANGE 158
#SCROLL 1
100000000000000000000000
#BPMCHANGE 155
#SCROLL 1.0193548387096774
200000000000,
#BPMCHANGE 158
#SCROLL 1
100000200000000000200000300000300000300000
#GOGOSTART
300000,
#BPMCHANGE 154
#SCROLL 1.025974025974026
000000000000
#BPMCHANGE 158
#SCROLL 1
200000000000100000100000000000100000,
#BPMCHANGE 161
#SCROLL 0.9813664596273292
000000000000
#BPMCHANGE 158
#SCROLL 1
200000000000
#BPMCHANGE 159
#SCROLL 0.9937106918238994
000000100000
#BPMCHANGE 158
#SCROLL 1
100000500000,
000000000000000008000000000000100000100000200000,
200000100000100000100000000000000000000000300000,
000000100100100000100100100000100000100000100000,
000100100000000100100000100100100100100000100000,
#BPMCHANGE 155
#SCROLL 1.0193548387096774
000000100000
#BPMCHANGE 158
#SCROLL 1
100000100000100000100000100000100000,
#BPMCHANGE 162
#SCROLL 0.9753086419753086
000000200000200000000000
#BPMCHANGE 158
#SCROLL 1
300000300000300000300000,
#BPMCHANGE 148
#SCROLL 1.0675675675675675
000000000000
#BPMCHANGE 156
#SCROLL 1.0128205128205128
200000000000100000100000
#BPMCHANGE 158
#SCROLL 1
000000100000,
000000000000200000000000100000100000100000500000,
000000000008000000000000000000100000
#BPMCHANGE 160
#SCROLL 0.9875
100000200000,
200000100000100000100000000000000000000000300000,
#BPMCHANGE 145
#SCROLL 1.089655172413793
000000100000
#BPMCHANGE 160
#SCROLL 0.9875
100100000100100100100000
#BPMCHANGE 158
#SCROLL 1
100000100000,
#BPMCHANGE 156
#SCROLL 1.0128205128205128
000100100000
#BPMCHANGE 158
#SCROLL 1
100100100100100000100000100000100000,
000000100000100000100000100000100000100000100000,
000000200000
#BPMCHANGE 159
#SCROLL 0.99371069182
200000000000
#BPMCHANGE 158
#SCROLL 1
300000300000000000300000,
000000000000
#GOGOEND
#BPMCHANGE 151
#SCROLL 1.0463576158940397
200000000000
#BPMCHANGE 158
#SCROLL 1
100000100000200000300000,
000000000000
#BPMCHANGE 155
#SCROLL 1.0193548387096774
200000000000
#BPMCHANGE 158
#SCROLL 1
100000100000200000300000,
#MEASURE 3/4
000000200000200000100000
#BPMCHANGE 164
#SCROLL 0.9634146341463414
200000200000,
#BPMCHANGE 159
#SCROLL 0.9937106918238994
100000200200
#BPMCHANGE 151
#SCROLL 1.0463576158940397
200000100000
#BPMCHANGE 181
#SCROLL 0.8729281767955801
200200200000,
#MEASURE 2/4
#BPMCHANGE 153
#SCROLL 1.0326797385620916
300000300000
#BPMCHANGE 161
#SCROLL 0.9813664596273292
300000
#GOGOSTART
300000,
#MEASURE 4/4
000000000000
#BPMCHANGE 158
#SCROLL 1
200000000000
#BPMCHANGE 152
#SCROLL 1.0394736842105263
100000100000
#BPMCHANGE 158
#SCROLL 1
000000100000,
000000000000200000000000000000100000100000500000,
000000000000000008000000000000100000
#BPMCHANGE 161
#SCROLL 0.9813664596273292
100000200000,
#BPMCHANGE 158
#SCROLL 1
200000100000100000500000000000000008
#BPMCHANGE 164
#SCROLL 0.9634146341463414
000000000000,
#BPMCHANGE 158
#SCROLL 1
100100100000
#BPMCHANGE 155
#SCROLL 1.0193548387096774
100100100100100000100000
#BPMCHANGE 150
#SCROLL 1.0533333333333332
100000100000,
#BPMCHANGE 159
#SCROLL 0.9937106918238994
000100100000
#BPMCHANGE 156
#SCROLL 1.0128205128205128
000100100000
#BPMCHANGE 161
#SCROLL 0.9813664596273292
100100100100
#BPMCHANGE 158
#SCROLL 1
100000100000,
#BPMCHANGE 154
#SCROLL 1.025974025974026
000000100000
#BPMCHANGE 161
#SCROLL 0.9813664596273292
100000100000
#BPMCHANGE 159
#SCROLL 0.9937106918238994
100000100000100000100000,
000000200000200000000000
#BPMCHANGE 155
#SCROLL 1.0193548387096774
300000300000300000300000,
#BPMCHANGE 162
#SCROLL 0.9753086419753086
000000000000
#BPMCHANGE 154
#SCROLL 1.025974025974026
200000000000
#BPMCHANGE 158
#SCROLL 1
100000200200
#BPMCHANGE 160
#SCROLL 0.9875
200000100000,
000000000000200000000000
#BPMCHANGE 155
#SCROLL 1.0193548387096774
100000100000
#BPMCHANGE 159
#SCROLL 0.9937106918238994
100000500000,
#BPMCHANGE 153
#SCROLL 1.0326797385620916
000000000008000000000000
#BPMCHANGE 170
#SCROLL 0.9294117647058824
000000100000
#BPMCHANGE 151
#SCROLL 1.0463576158940397
100000200000,
#BPMCHANGE 160
#SCROLL 0.9875
200000100000
#BPMCHANGE 152
#SCROLL 1.0394736842105263
100000500000
#BPMCHANGE 163
#SCROLL 0.9693251533742331
000000000008
#BPMCHANGE 157
#SCROLL 1.0063694267515924
000000000000,
#BPMCHANGE 152
#SCROLL 1.0394736842105263
100000100100
#BPMCHANGE 169
#SCROLL 0.9349112426035503
100000100100
#BPMCHANGE 152
#SCROLL 1.0394736842105263
100000100000
#BPMCHANGE 154
#SCROLL 1.025974025974026
100000100000,
#BPMCHANGE 153
#SCROLL 1.0326797385620916
000000100000
#BPMCHANGE 172
#SCROLL 0.9186046511627907
100100100100
#BPMCHANGE 149
#SCROLL 1.0604026845637584
100000100000
#BPMCHANGE 158
#SCROLL 1
100000100000,
#BPMCHANGE 152
#SCROLL 1.0394736842105263
000000100000100000100000
#BPMCHANGE 159
#SCROLL 0.9937106918238994
100000100000
#BPMCHANGE 158
#SCROLL 1
100000100000,
000000200000200000000000300000300000000000300000,
#GOGOEND
#END