Files
ESE-ja-fix/01 Pop/Takane no Hanako-san/Takane no Hanako-san.tja
T
2023-06-15 19:05:10 -05:00

333 lines
3.9 KiB
Plaintext

//TJADB Project
TITLE:Takane no Hanako-san
TITLEJA:高嶺の花子さん
SUBTITLE:--back number
SUBTITLEJA:back number
BPM:87
WAVE:Takane no Hanako-san.ogg
OFFSET:-3.650
DEMOSTART:84.182
COURSE:Oni
LEVEL:6
BALLOON:10,5,16,10
SCOREINIT:800
SCOREDIFF:210
#START
,
,
#BPMCHANGE 87.16
,
#BPMCHANGE 86.84
10201022,
#BPMCHANGE 87.13
10201022,
#BPMCHANGE 87.83
1211,
#BPMCHANGE 86.53
1250,
000000000000000000000000000000000008000000000000,
#BPMCHANGE 138
10101210,
10101212,
10101210,
10121012,
1010200010102011,
1010200010102011,
#BPMCHANGE 138.75
1010201020102011,
#BPMCHANGE 137.26
11130000,
#BPMCHANGE 138
1000200010202220,
1002002000202220,
10201222,
1000200010202220,
1000202000202220,
1022201000207000,
00000801,
78,
1000200010202220,
1002002000202220,
10201222,
1000202010102220,
1010201000202220,
02020122,
7,
00800022,
#BPMCHANGE 138.29
10120211,
1011102020201020,
#BPMCHANGE 138.27
10120211,
#BPMCHANGE 137.16
1011102010002020,
#BPMCHANGE 138.76
1020101110201020,
#BPMCHANGE 138.22
1020101110001020,
#BPMCHANGE 138.33
0020102220202020,
#BPMCHANGE 136.71
1020102220201000,
#BPMCHANGE 139.05
1020102220201010,
#BPMCHANGE 138.09
04430202,
#GOGOSTART
#BPMCHANGE 138
1020102220201020,
1020102220201020,
1022201110222020,
1020102220201020,
1020102220201020,
1022201022201020,
1020102220201050,
000000000000000000000008000000200000200000200000,
1020102220111020,
1020102220111020,
1022201110222020,
1022201022201020,
0020102220102020,
1022201022201070,
00000804,
30443360,
,
000000000000000000000000000000000008000000000000,
#GOGOEND
#END
COURSE:Hard
LEVEL:4
BALLOON:26
SCOREINIT:830
SCOREDIFF:240
#START
,
,
,
12,
1120,
1122,
1150,
000000000000000000000000000000000008000000000000,
#BPMCHANGE 138
1110,
10101110,
2220,
20202220,
10102220,
10102220,
1122,
33330000,
10000111,
1001001000101010,
00000222,
00000011,
10110101,
02020150,
000000000000000000000008000000000000000000100000,
1,
10000111,
1001001000101010,
00000222,
00110110,
10110111,
02020115,
,
000008000000000000000000000000000000000000000000,
10110111,
00022220,
10110111,
00022000,
10101011,
10111010,
20220220,
20220220,
10101122,
03330000,//42
#GOGOSTART
10201120,
10110202,
01101120,
10110202,
01101120,
10110202,
00112215,
000000000000000000000008000000100000100000000000,
10201122,
10220202,
01101122,
10220404,
00220303,
00110406,
000000000000000000000008000000000000000000100000,
10221090,
,
09000080,
#GOGOEND
#END
COURSE:Normal
LEVEL:4
BALLOON:18
#START
,
,
,
11,
1110,
12,
1110,
,
#BPMCHANGE 138
11,
1110,
12,
1110,
10101110,
10101110,
20202220,
33330000,
12,
10000111,
00000111,
,
10110101,
01010150,
000000000000000000000008000000000000000000100000,
1,
12,
10000111,
00000111,
,
10110111,
01010115,
,
000008000000000000000000000000000000000000000000,
10110111,
00020220,
10110111,
00011000,
1110,
1120,
1110,
1120,
10101022,
03330000,//42
#GOGOSTART
10101011,
10110202,
00101011,
10110202,
00101011,
10110202,
00101115,
000000000000000000000008000000000000000000000000,
10101011,
10110202,
00101011,
10110404,
00220404,
00220406,
000000000000000000000008000000000000000000000000,
10111090,
,
09000080,
#GOGOEND
#END
COURSE:Easy
LEVEL:2
BALLOON:15
#START
,
,
,
11,
1110,
11,
1110,
,
#BPMCHANGE 138
11,
1,
11,
1,
11,
11,
1110,
3,
1,
1,
1,
2,
11,
2005,
000000000000000000000008000000000000000000000000,
,
1,
11,
1,
11,
1,
10001005,
,
000008000000000000000000000000000000000000000000,
1,
22,
1,
22,
11,
1110,
1110,
2220,
11,
03330000,//42
#GOGOSTART
1110,
11,
1110,
11,
1110,
1110,
10102005,
000000000000000000000008000000000000000000000000,
1110,
22,
1110,
22,
3330,
30303006,
000000000000000000000008000000000000000000000000,
1129,
,
09000080,
#GOGOEND
#END