Files
ESE-ja-fix/01 Pop/Usseewa/Usseewa.tja
T
2023-01-17 00:45:18 -05:00

314 lines
10 KiB
Plaintext

//TJADB Project
TITLE:Usseewa
TITLEJA:うっせぇわ
SUBTITLE:--syudou feat. Ado
SUBTITLEJA:Ado
BPM:178
WAVE:Usseewa.ogg
OFFSET:-0.393
DEMOSTART:51.606
BGMOVIE:Usseewa.mp4
COURSE:Oni
LEVEL:8
BALLOON:6
SCOREINIT:700
SCOREDIFF:198
#START
300300222222,
300300222222,
300300222222,
33333030,
#GOGOSTART
1000100010111010,
1000100010112010,
1000100010112010,
1000100010112011,
1000100010111010,
1000100010112010,
1000100010111010,
10101222,
#GOGOEND
1000202010222020,
1000200010111010,
1000202010222020,
1000200010111010,
1000202010222020,
1000200010111010,
1020201010002011,
12210221,
1110202010201120,
1110202010201120,
1110201110202010,
1110201110202010,
2022102020221020,
2022102020221020,
2022102210221022,
1022111110112000,
1001001010010010,
1001001020221020,
1001001010010010,
1001001020221111,
1001021010010210,
1001021020201121,
1021021010210210,
3333,
3222,
2020
#SCROLL 4
7008,
#GOGOSTART
#SCROLL 1
3011200030112000,
3000300030002011,
1011201110222011,
1011201110002000,
3011200030112000,
3000300030002011,
1011201110112011,
100000000000200000200000500000000000000008000000,
1000102010111020,
1000102010121020,
1000102010111020,
500000000000000008000000200000200000200000000000,
3011200030112000,
3000300030002011,
1011201110112110,
30033003,
03033000,
#GOGOEND
#END
COURSE:Hard
LEVEL:3
BALLOON:4
SCOREINIT:5140
SCOREDIFF:0
#START
300000000000300000000000000000000000000000000000,
300000000000300000000000000000000000000000000000,
300000000000300000000000000000000000000000000000,
300000300000300000300000300000000000300000000000,
#GOGOSTART
600000000000000000000000000000000000000000000080,
000000000000000000000000000000000000000000000000,
100000000000100000000000100000000000000000000000,
100000000000100000000000100000000000000000000000,
100000000000100000000000100000000000200000000000,
100000000000100000000000100000000000200000000000,
100000000000100000000000100000000000200000000000,
100000000000100000000000100000000000200000000000,
#GOGOEND
100000000000100000100000100000000000100000100000,
100000000000100000000000200000000000000000000000,
100000000000100000100000100000000000100000100000,
100000000000100000000000200000000000000000000000,
100000000000100000100000100000000000100000100000,
100000000000100000000000200000000000000000100000,
100000000000100000000000100000000000000000100000,
100000000000100000100000000000200000200000000000,
200000000000200000200000200000000000000000000000,
200000000000200000200000200000000000000000000000,
200000000000200000200000000000200000200000000000,
200000200000200000200000200000000000000000000000,
100000000000100000100000100000000000100000100000,
100000000000200000000000200000000000200000000000,
100000000000000000000000000000000000000000000000,
000000000000000000000000000000000000000000000000,
100000000100000000100000100000000000000000000000,
100000000100000000100000200000000000000000000000,
100000000100000000100000100000000000000000000000,
100000000100000000100000200000000000000000000000,
100000000100000000100000100000000000000000000000,
100000000100000000100000200000000000000000000000,
300000000300000000300000300000000300000000300000,
300000000000300000000000300000000000300000000000,
300000000000000000000000000000000000000000000000,
000000000000000000000000700000000000000800000000,
#GOGOSTART
100000000000200000000000100000000000200000000000,
300000000000300000000000300000000000000000000000,
100000100000100000100000100000000000200000000000,
300000000000300000000000300000000000000000000000,
100000000000200000000000100000000000200000000000,
300000000000300000000000300000000000000000000000,
100000100000100000100000100000000000200000000000,
500000000000000000000000000000000000000000000080,
000000000000000000000000000000000000000000000000,
100000000000000000000000200000000000200000000000,
100000000000000000000000200000000000200000000000,
100000000000000000000000200000200000200000000000,
100000000000200000000000100000000000200000000000,
300000000000300000000000300000000000000000000000,
100000100000100000100000100000000000200000000000,
300000000000000000300000300000000000000000300000,
000000300000000000300000300000000000000000000000,
#GOGOEND
#END
COURSE:Normal
LEVEL:2
BALLOON:3
SCOREINIT:8300
SCOREDIFF:0
#START
300000000000300000000000000000000000000000000000,
300000000000300000000000000000000000000000000000,
300000000000300000000000000000000000000000000000,
300000300000300000300000300000000000300000000000,
#GOGOSTART
600000000000000000000000000000000000000000000080,
000000000000000000000000000000000000000000000000,
000000000000000000000000000000000000000000000000,
000000000000000000000000000000000000000000000000,
100000000000100000000000100000000000000000000000,
100000000000100000000000100000000000000000000000,
100000000000100000000000100000000000000000000000,
100000000000100000000000100000000000000000000000,
#GOGOEND
100000000000000000000000100000000000000000000000,
100000000000100000000000100000000000000000000000,
100000000000000000000000100000000000000000000000,
100000000000100000000000100000000000000000000000,
100000000000000000000000100000000000000000000000,
100000000000100000000000100000000000000000000000,
100000000000000000000000100000000000000000000000,
100000000000100000000000000000000000000000000000,
200000000000000000000000200000000000000000000000,
200000000000200000000000200000000000000000000000,
200000000000000000000000200000000000000000000000,
200000000000200000000000200000000000000000000000,
100000000000100000000000100000000000000000000000,
100000000000100000000000100000000000000000000000,
200000000000000000000000000000000000000000000000,
000000000000000000000000000000000000000000000000,
100000000000000000000000100000000000000000000000,
100000000000000000000000200000000000000000000000,
100000000000000000000000100000000000000000000000,
100000000000000000000000200000000000000000000000,
100000000000000000000000100000000000000000000000,
100000000000000000000000200000000000000000000000,
300000000000000000000000300000000000000000000000,
300000000000300000000000300000000000300000000000,
300000000000000000000000000000000000000000000000,
000000000000000000000000700000000000000800000000,
#GOGOSTART
100000000000100000000000100000000000100000000000,
300000000000300000000000300000000000000000000000,
100000000000100000000000100000000000100000000000,
300000000000300000000000300000000000000000000000,
100000000000100000000000100000000000100000000000,
300000000000300000000000300000000000000000000000,
100000000000100000000000100000000000100000000000,
500000000000000000000000000000000000000000000080,
000000000000000000000000000000000000000000000000,
100000000000000000000000200000000000000000000000,
100000000000000000000000200000000000000000000000,
100000000000000000000000000000000000000000000000,
100000000000100000000000100000000000100000000000,
300000000000300000000000300000000000000000000000,
100000000000100000000000100000000000100000000000,
700000000000000000000000000000000000000000000000,
000000000000000000800000000000000000000000000000,
#GOGOEND
#END
COURSE:Easy
LEVEL:2
BALLOON:2
SCOREINIT:12310
SCOREDIFF:0
#START
300000000000300000000000000000000000000000000000,
300000000000300000000000000000000000000000000000,
300000000000300000000000000000000000000000000000,
300000000000300000000000300000000000300000000000,
#GOGOSTART
600000000000000000000000000000000000000000000080,
000000000000000000000000000000000000000000000000,
000000000000000000000000000000000000000000000000,
000000000000000000000000000000000000000000000000,
100000000000000000000000100000000000000000000000,
100000000000000000000000100000000000000000000000,
100000000000000000000000100000000000000000000000,
100000000000000000000000100000000000000000000000,
#GOGOEND
100000000000000000000000000000000000000000000000,
100000000000000000000000000000000000000000000000,
100000000000000000000000100000000000000000000000,
100000000000000000000000000000000000000000000000,
100000000000000000000000000000000000000000000000,
100000000000000000000000000000000000000000000000,
100000000000000000000000100000000000000000000000,
100000000000000000000000000000000000000000000000,
200000000000000000000000000000000000000000000000,
200000000000000000000000000000000000000000000000,
200000000000000000000000200000000000000000000000,
200000000000000000000000000000000000000000000000,
100000000000000000000000100000000000000000000000,
100000000000000000000000000000000000000000000000,
200000000000000000000000000000000000000000000000,
000000000000000000000000000000000000000000000000,
100000000000000000000000000000000000000000000000,
100000000000000000000000000000000000000000000000,
100000000000000000000000000000000000000000000000,
100000000000000000000000000000000000000000000000,
100000000000000000000000100000000000000000000000,
100000000000000000000000100000000000000000000000,
300000000000000000000000300000000000000000000000,
300000000000300000000000300000000000300000000000,
300000000000000000000000000000000000000000000000,
000000000000000000000000700000000000000800000000,
#GOGOSTART
100000000000000000000000100000000000000000000000,
300000000000300000000000300000000000000000000000,
100000000000000000000000100000000000000000000000,
300000000000300000000000300000000000000000000000,
100000000000000000000000100000000000000000000000,
300000000000300000000000300000000000000000000000,
100000000000000000000000100000000000000000000000,
500000000000000000000000000000000000000000000080,
000000000000000000000000000000000000000000000000,
100000000000000000000000000000000000000000000000,
100000000000000000000000100000000000000000000000,
100000000000000000000000000000000000000000000000,
100000000000000000000000100000000000000000000000,
300000000000300000000000300000000000000000000000,
100000000000100000000000100000000000000000000000,
700000000000000000000000000000000000000000000000,
000000000000000000800000000000000000000000000000,
#GOGOEND
#END